<?xml version="1.0" standalone="no"?>
<!DOCTYPE svg PUBLIC "-//W3C//DTD SVG 1.1//EN" "http://www.w3.org/Graphics/SVG/1.1/DTD/svg11.dtd" >
<svg xmlns="http://www.w3.org/2000/svg" xmlns:xlink="http://www.w3.org/1999/xlink" version="1.1">
<metadata>
Created by FontForge 20201107 at Fri Sep 10 18:37:55 2021
 By 
Copyright 2020 The Jost Project Authors (https://github.com/indestructible-type/Jost)
</metadata>
<defs>
<font id="Jost-Regular" horiz-adv-x="570" >
  <font-face 
    font-family="Jost"
    font-weight="400"
    font-stretch="normal"
    units-per-em="1000"
    panose-1="0 0 0 0 0 0 0 0 0 0"
    ascent="800"
    descent="-200"
    x-height="460"
    cap-height="700"
    bbox="-111 -350 1476 1030"
    underline-thickness="50"
    underline-position="-125"
    unicode-range="U+000D-FF19"
  />
<missing-glyph horiz-adv-x="500" 
 />
    <glyph glyph-name=".notdef" horiz-adv-x="500" 
 />
    <glyph glyph-name="uni0000" horiz-adv-x="300" 
 />
    <glyph glyph-name="uni0000" horiz-adv-x="300" 
 />
    <glyph glyph-name="uni000D" unicode="&#xd;" horiz-adv-x="300" 
 />
    <glyph glyph-name="space" unicode=" " horiz-adv-x="300" 
 />
    <glyph glyph-name="exclam" unicode="!" horiz-adv-x="300" 
d="M100 700l20 -500h60l20 500h-100zM95 40q0 -22 16.5 -38.5t38.5 -16.5q23 0 39 16.5t16 38.5q0 23 -16 39t-39 16q-22 0 -38.5 -16t-16.5 -39z" />
    <glyph glyph-name="quotedbl" unicode="&#x22;" horiz-adv-x="465" 
d="M130 700l-50 -300h55l90 300h-95zM310 700l-50 -300h55l90 300h-95z" />
    <glyph glyph-name="numbersign" unicode="#" horiz-adv-x="605" 
d="M75 440h135h14h192h14h140v65h-495v-65zM35 200h495v65h-128h-20h-200h-16h-131v-65zM455 700l-54 -222l-4 -16l-52 -216l-5 -18l-55 -228h75l170 700h-75zM245 700l-170 -700h75l55 226l4 18l54 222l4 16l53 218h-75z" />
    <glyph glyph-name="dollar" unicode="$" horiz-adv-x="580" 
d="M259 818v-150h74v150h-74zM259 48v-160h74v160h-74zM440 514l69 46q-14 36 -43.5 70.5t-72.5 57t-100 22.5t-103 -22.5t-73 -61t-27 -86.5t17.5 -82t44.5 -57.5t57.5 -38.5t56.5 -24q40 -14 77.5 -33t62 -48t24.5 -74q0 -35 -13.5 -60.5t-40 -39t-66.5 -13.5
q-43 0 -76.5 19t-59.5 54t-47 83l-72 -43q22 -58 58.5 -101t85.5 -67.5t106 -24.5q70 0 117 25t71.5 70.5t24.5 104.5q0 48 -17 82.5t-44 58t-58 39.5t-58 26q-42 16 -79 33.5t-60 42t-23 62.5q0 31 12 52t37.5 32t65.5 11q39 0 66 -16.5t46 -43t34 -55.5z" />
    <glyph glyph-name="percent" unicode="%" horiz-adv-x="751" 
d="M35 550q0 -44 19.5 -80.5t55.5 -58t83 -21.5q48 0 83.5 21.5t55 58t19.5 80.5q0 45 -19.5 81t-55 57.5t-83.5 21.5q-47 0 -83 -21.5t-55.5 -57.5t-19.5 -81zM106 550q0 26 10.5 47.5t30 34.5t46.5 13q28 0 47 -13t29.5 -34.5t10.5 -47.5q0 -25 -10.5 -47t-29.5 -35
t-47 -13q-27 0 -46.5 13t-30 35t-10.5 47zM400 150q0 -44 19.5 -80.5t55.5 -58t83 -21.5q48 0 83.5 21.5t55 58t19.5 80.5q0 45 -19.5 81t-55 57.5t-83.5 21.5q-47 0 -83 -21.5t-55.5 -57.5t-19.5 -81zM471 150q0 26 10.5 47.5t30 34.5t46.5 13q28 0 47 -13t29.5 -34.5
t10.5 -47.5q0 -25 -10.5 -47t-29.5 -35t-47 -13q-27 0 -46.5 13t-30 35t-10.5 47zM563 700l-450 -700h75l450 700h-75z" />
    <glyph glyph-name="ampersand" unicode="&#x26;" horiz-adv-x="675" 
d="M223 384l336 -384h96l-370 425q-30 35 -57 66t-27 65q0 38 23 61t64 23q28 0 47 -11t29.5 -30t10.5 -45q0 -34 -32.5 -69.5t-88.5 -67.5q-20 -11 -48 -24.5t-57 -31.5t-53.5 -43t-40 -58t-15.5 -77q0 -59 32.5 -102.5t84 -67t108.5 -23.5q67 0 123 25t104 66t90 92.5
t82 103.5l-62 39q-36 -49 -74.5 -94t-79.5 -80.5t-85.5 -56.5t-92.5 -21q-40 0 -73 15t-52.5 43t-19.5 66t18 65t46.5 47.5t60.5 37t59 32.5q35 21 62 42.5t46 45t29 47.5t10 49q0 42 -20 77.5t-57.5 57.5t-90.5 22q-50 0 -88.5 -19t-60.5 -54t-22 -82q0 -38 19.5 -70
t45 -57.5t41.5 -44.5z" />
    <glyph glyph-name="quotesingle" unicode="'" horiz-adv-x="285" 
d="M130 700l-50 -300h55l90 300h-95z" />
    <glyph glyph-name="parenleft" unicode="(" horiz-adv-x="310" 
d="M205 780q-60 -112 -87.5 -237t-27.5 -253q0 -127 27.5 -252t87.5 -238h75q-52 113 -76 238t-24 252q0 128 24 253t76 237h-75z" />
    <glyph glyph-name="parenright" unicode=")" horiz-adv-x="310" 
d="M105 -200q60 113 87.5 238t27.5 252q0 128 -27.5 253t-87.5 237h-75q53 -112 76.5 -237t23.5 -253q0 -127 -23.5 -252t-76.5 -238h75z" />
    <glyph glyph-name="asterisk" unicode="*" horiz-adv-x="592" 
d="M471 599l-183 -70l16 -48l188 51zM439 368l-123 152l-40 -30l106 -163zM210 327l106 163l-40 30l-123 -152zM100 532l188 -51l16 48l-183 70zM261 700l10 -195h50l10 195h-70z" />
    <glyph glyph-name="plus" unicode="+" horiz-adv-x="615" 
d="M65 215h485v80h-485v-80zM265 500v-490h85v490h-85z" />
    <glyph glyph-name="comma" unicode="," horiz-adv-x="308" 
d="M148 110l-88 -259l58 -21l110 250z" />
    <glyph glyph-name="hyphen" unicode="-" horiz-adv-x="210" 
d="M5 200h200v75h-200v-75z" />
    <glyph glyph-name="period" unicode="." horiz-adv-x="300" 
d="M95 40q0 -22 16.5 -38.5t38.5 -16.5q23 0 39 16.5t16 38.5q0 23 -16 39t-39 16q-22 0 -38.5 -16t-16.5 -39z" />
    <glyph glyph-name="slash" unicode="/" horiz-adv-x="515" 
d="M420 700l-405 -850h80l405 850h-80z" />
    <glyph glyph-name="zero" unicode="0" horiz-adv-x="600" 
d="M125 350q0 61 12 112.5t35 89t55.5 58t72.5 20.5q41 0 73 -20.5t55 -58t35 -89t12 -112.5t-12 -112.5t-35 -89t-55 -58t-73 -20.5q-40 0 -72.5 20.5t-55.5 58t-35 89t-12 112.5zM40 350q0 -105 33 -186t91.5 -127.5t135.5 -46.5t135.5 46.5t91.5 127.5t33 186t-33 186
t-91.5 127.5t-135.5 46.5t-135.5 -46.5t-91.5 -127.5t-33 -186z" />
    <glyph glyph-name="one" unicode="1" horiz-adv-x="450" 
d="M80 562l155 46v-608h85v710l-240 -60v-88z" />
    <glyph glyph-name="two" unicode="2" horiz-adv-x="569" 
d="M20 0h494v80h-319l223 227q41 42 67 95t26 107q0 32 -13 67t-40 65.5t-69 50t-100 19.5q-72 0 -123.5 -31.5t-78.5 -88t-27 -131.5h85q0 53 17 91.5t49.5 59t77.5 20.5q32 0 57 -11t42.5 -29t26.5 -40t9 -45q0 -28 -8.5 -53.5t-25 -50t-39.5 -49.5z" />
    <glyph glyph-name="three" unicode="3" horiz-adv-x="546" 
d="M253 345q68 0 119 24t80 65t29 90q0 50 -23.5 92t-67 68t-103.5 26q-57 0 -101.5 -23.5t-70 -64.5t-25.5 -96h81q0 46 34 76.5t83 30.5q35 0 58.5 -14t35.5 -39.5t12 -58.5q0 -25 -9.5 -47t-27.5 -38.5t-44 -26t-60 -9.5v-55zM283 -10q63 0 112 24t77.5 68t28.5 103
q0 52 -19.5 89t-54 60.5t-79 34.5t-95.5 11v-55q34 0 63 -8t51 -24.5t34.5 -41t12.5 -56.5q0 -38 -16 -66t-45.5 -43.5t-69.5 -15.5t-71 15t-48.5 41t-17.5 59h-86q0 -41 16 -76.5t45 -62t70 -41.5t92 -15z" />
    <glyph glyph-name="four" unicode="4" horiz-adv-x="583" 
d="M20 140h533v75h-143h-17h-233l198 296v-324v-11v-176h85v700h-35z" />
    <glyph glyph-name="five" unicode="5" horiz-adv-x="564" 
d="M524 230q0 70 -27 123t-74.5 83t-107.5 30q-26 0 -52.5 -6.5t-51.5 -19.5l47 185h264v75h-330l-92 -373q36 25 63.5 38.5t55 19t60.5 5.5q45 0 80.5 -20t56 -56t20.5 -84t-18.5 -84t-53.5 -56t-85 -20q-38 0 -73 16.5t-61.5 43t-42.5 56.5l-72 -49q23 -40 56.5 -73.5
t81 -53.5t111.5 -20q51 0 95 15t78 45t53 75t19 105z" />
    <glyph glyph-name="six" unicode="6" horiz-adv-x="576" 
d="M131 230q0 48 20.5 85.5t56 58.5t80.5 21t80.5 -21t56 -58.5t20.5 -85.5t-20.5 -84.5t-56 -57.5t-80.5 -21t-80.5 21t-56 57.5t-20.5 84.5zM330 700l-236 -325q-20 -28 -32 -65t-12 -80q0 -72 31.5 -126t85.5 -84t121 -30q68 0 121.5 30t85 84t31.5 126q0 48 -16 89.5
t-44.5 72.5t-66 48t-80.5 17q-34 0 -60.5 -8t-46.5 -33l6 -5l219 289h-107z" />
    <glyph glyph-name="seven" unicode="7" horiz-adv-x="525" 
d="M30 620h363l-297 -620h89l335 700h-490v-80z" />
    <glyph glyph-name="eight" unicode="8" horiz-adv-x="546" 
d="M80 531q0 -41 14 -73.5t39.5 -55.5t61 -35t78.5 -12t78.5 12t61 35t39.5 55.5t14 73.5q0 50 -25.5 90.5t-69 64.5t-98.5 24t-98.5 -24t-69 -64.5t-25.5 -90.5zM161 521q0 33 14.5 59t40 40.5t57.5 14.5q33 0 58 -14.5t39.5 -40.5t14.5 -59t-15.5 -58t-41 -39t-55.5 -14
t-55.5 14t-41 39t-15.5 58zM55 190q0 -41 16.5 -77t46 -64t69 -43.5t86.5 -15.5t86.5 15.5t69 43.5t46 64t16.5 77q0 48 -17.5 85.5t-48 63t-70 38.5t-82.5 13t-82.5 -13t-70 -38.5t-48 -63t-17.5 -85.5zM136 200q0 38 19.5 68.5t51 48.5t66.5 18t66.5 -18t51 -48.5
t19.5 -68.5q0 -43 -19.5 -73t-51 -46t-66.5 -16t-66.5 16t-51 46t-19.5 73z" />
    <glyph glyph-name="nine" unicode="9" horiz-adv-x="576" 
d="M445 470q0 -48 -20.5 -85t-56 -58.5t-80.5 -21.5t-80.5 21.5t-56 58.5t-20.5 85t20.5 84.5t56 57.5t80.5 21t80.5 -21t56 -57.5t20.5 -84.5zM246 0l236 325q20 28 32 65t12 80q0 72 -31.5 126t-85 84t-121.5 30q-67 0 -121 -30t-85.5 -84t-31.5 -126q0 -48 16 -89.5
t44.5 -72.5t66 -48t80.5 -17q34 0 60.5 8t46.5 33l-6 5l-219 -289h107z" />
    <glyph glyph-name="colon" unicode=":" horiz-adv-x="300" 
d="M95 40q0 -22 16.5 -38.5t38.5 -16.5q23 0 39 16.5t16 38.5q0 23 -16 39t-39 16q-22 0 -38.5 -16t-16.5 -39zM95 420q0 -22 16.5 -38.5t38.5 -16.5q23 0 39 16.5t16 38.5q0 23 -16 39t-39 16q-22 0 -38.5 -16t-16.5 -39z" />
    <glyph glyph-name="semicolon" unicode=";" horiz-adv-x="330" 
d="M125 420q0 -22 16.5 -38.5t38.5 -16.5q23 0 39 16.5t16 38.5q0 23 -16 39t-39 16q-22 0 -38.5 -16t-16.5 -39zM148 110l-88 -259l58 -21l110 250z" />
    <glyph glyph-name="less" unicode="&#x3c;" horiz-adv-x="640" 
d="M197 262l378 158v80l-510 -220v-45l510 -220v80z" />
    <glyph glyph-name="equal" unicode="=" horiz-adv-x="615" 
d="M65 140h485v75h-485v-75zM65 290h485v75h-485v-75z" />
    <glyph glyph-name="greater" unicode="&#x3e;" horiz-adv-x="640" 
d="M443 253l-378 -158v-80l510 220v45l-510 220v-80z" />
    <glyph glyph-name="question" unicode="?" horiz-adv-x="557" 
d="M416 500q0 -38 -23 -73.5t-66 -58.5t-103 -23h-26l20 -175h60l7 120q56 3 104 31.5t78 75t30 103.5q0 45 -16.5 83t-46 66.5t-69 44.5t-86.5 16q-59 0 -99.5 -14.5t-68.5 -41t-51 -61.5l65 -41q23 38 58.5 60.5t85.5 22.5q45 0 78 -16t51 -46t18 -73zM195 40
q0 -22 16.5 -38.5t38.5 -16.5q23 0 39 16.5t16 38.5q0 23 -16 39t-39 16q-22 0 -38.5 -16t-16.5 -39z" />
    <glyph glyph-name="at" unicode="@" horiz-adv-x="770" 
d="M266 320q0 43 16.5 74.5t42.5 48.5t53 17q25 0 44.5 -11t31 -31t11.5 -48q0 -53 -19 -83.5t-46 -43.5t-52 -13q-41 0 -61.5 24t-20.5 66zM190 317q0 -49 19.5 -84.5t51 -54t67.5 -18.5q48 0 87 23.5t62.5 70.5t23.5 116q0 40 -13 76.5t-40 60t-70 23.5q-42 0 -85.5 -24.5
t-73 -71.5t-29.5 -117zM35 320q0 -99 38 -173.5t111.5 -115.5t180.5 -41q86 0 138.5 16.5t97.5 43.5l-35 57q-49 -31 -98.5 -41.5t-102.5 -10.5q-79 0 -137.5 32.5t-90.5 92t-32 140.5q0 69 22 128t62.5 103t98 69t127.5 25q63 0 110 -21t78 -57t46.5 -81.5t15.5 -95.5
q0 -63 -18.5 -101.5t-42 -55.5t-38.5 -17q-16 0 -24.5 6.5t-11.5 17t-3 22.5q0 6 0.5 14t1.5 13l41 231h-75l-36 -250h7q-5 -33 5 -60t32.5 -43.5t52.5 -16.5q28 0 59 13t58.5 41t44.5 74t17 112q0 60 -20 117t-60 103t-100 73t-140 27q-84 0 -153.5 -30t-120.5 -83
t-78.5 -124t-27.5 -153z" />
    <glyph glyph-name="A" unicode="A" horiz-adv-x="660" 
d="M147 210h370l-30 80h-310zM330 542l120 -282l8 -20l102 -240h95l-325 735l-325 -735h95l104 246l8 18z" />
    <glyph glyph-name="B" unicode="B" horiz-adv-x="558" 
d="M147 370h113q63 0 109.5 18t72.5 53t26 84q0 60 -26 98.5t-72.5 57.5t-109.5 19h-180v-700h190q68 0 121.5 22.5t85 68t31.5 114.5q0 48 -18 83t-50.5 57.5t-75.5 33.5t-94 11h-123v-47h123q34 0 62 -8.5t48.5 -25.5t31.5 -42t11 -57q0 -43 -19.5 -73t-54 -46t-79.5 -16
h-105v550h95q53 0 88 -27.5t35 -77.5q0 -33 -16 -56t-44 -35t-63 -12h-113v-47z" />
    <glyph glyph-name="C" unicode="C" horiz-adv-x="685" 
d="M130 350q0 82 36.5 143.5t95.5 96.5t128 35q50 0 91.5 -13t75.5 -36.5t58 -54.5v112q-44 39 -96 58t-129 19q-73 0 -136.5 -26.5t-111.5 -75t-75 -114.5t-27 -144t27 -144t75 -114.5t111.5 -75t136.5 -26.5q77 0 129 19t96 58v112q-24 -31 -58 -54.5t-75.5 -36.5
t-91.5 -13q-69 0 -128 35t-95.5 97t-36.5 143z" />
    <glyph glyph-name="D" unicode="D" horiz-adv-x="680" 
d="M80 700v-700h85v700h-85zM290 0q102 0 181 44t124 122.5t45 183.5t-45 183.5t-124 122.5t-181 44h-163v-85h163q59 0 108 -18.5t84 -53t54 -83.5t19 -110t-19 -110t-54 -83.5t-84 -53t-108 -18.5h-163v-85h163z" />
    <glyph glyph-name="E" unicode="E" horiz-adv-x="550" 
d="M127 0h353v80h-353v-80zM127 620h353v80h-353v-80zM127 340h333v80h-333v-80zM80 700v-700h85v700h-85z" />
    <glyph glyph-name="F" unicode="F" horiz-adv-x="500" 
d="M127 620h313v80h-313v-80zM127 340h303v80h-303v-80zM80 700v-700h85v700h-85z" />
    <glyph glyph-name="G" unicode="G" horiz-adv-x="775" 
d="M405 275h233q-9 -41 -28.5 -77t-49.5 -64t-71.5 -43.5t-93.5 -15.5q-74 0 -134 35t-95.5 97t-35.5 143q0 82 35.5 143.5t95.5 96.5t134 35q80 0 139 -31.5t92 -87.5l60 55q-30 49 -73.5 82t-98 50t-119.5 17q-76 0 -141 -26.5t-113 -75t-74.5 -114.5t-26.5 -144
t26.5 -144t74.5 -114.5t113 -75t141 -26.5q80 0 142.5 29.5t105.5 80.5t65 116.5t22 138.5h-325v-80z" />
    <glyph glyph-name="H" unicode="H" horiz-adv-x="715" 
d="M127 340h480v80h-480v-80zM550 700v-700h85v700h-85zM80 700v-700h85v700h-85z" />
    <glyph glyph-name="I" unicode="I" horiz-adv-x="245" 
d="M80 700v-700h85v700h-85z" />
    <glyph glyph-name="J" unicode="J" horiz-adv-x="240" 
d="M-67 -104l-44 -66q8 -10 25.5 -21.5t42 -20t50.5 -8.5q35 0 63.5 9.5t48.5 29.5t30.5 50t10.5 71v760h-80v-750q0 -49 -22.5 -69.5t-45.5 -20.5q-27 0 -47.5 9.5t-31.5 26.5z" />
    <glyph glyph-name="K" unicode="K" horiz-adv-x="565" 
d="M80 700v-700h85v700h-85zM440 700l-301 -330l316 -370h105l-318 372l303 328h-105z" />
    <glyph glyph-name="L" unicode="L" horiz-adv-x="450" 
d="M80 700v-700h360v80h-275v620h-85z" />
    <glyph glyph-name="M" unicode="M" horiz-adv-x="810" 
d="M177 473l228 -408l228 408l52 -473h85l-85 735l-280 -507l-280 507l-85 -735h85z" />
    <glyph glyph-name="N" unicode="N" horiz-adv-x="775" 
d="M610 700v-521l-530 556v-735h85v521l530 -556v735h-85z" />
    <glyph glyph-name="O" unicode="O" horiz-adv-x="790" 
d="M130 350q0 79 34.5 141t94.5 98t136 36q77 0 136.5 -36t94 -98t34.5 -141t-34.5 -141t-94 -98t-136.5 -36q-76 0 -136 36t-94.5 98t-34.5 141zM40 350q0 -76 26.5 -142t74.5 -114.5t113 -76t141 -27.5q77 0 141.5 27.5t112.5 76t74.5 114.5t26.5 142q0 77 -26.5 142.5
t-74.5 114t-112.5 76t-141.5 27.5q-76 0 -141 -27.5t-113 -76t-74.5 -114t-26.5 -142.5z" />
    <glyph glyph-name="P" unicode="P" horiz-adv-x="548" 
d="M80 700v-700h85v700h-85zM127 620h143q68 0 110.5 -32.5t42.5 -97.5q0 -64 -42.5 -97t-110.5 -33h-143v-80h143q68 0 121.5 25.5t85 73t31.5 111.5q0 65 -31.5 112t-85 72.5t-121.5 25.5h-143v-80z" />
    <glyph glyph-name="Q" unicode="Q" horiz-adv-x="790" 
d="M130 350q0 79 34.5 141t94.5 98t136 36q77 0 136.5 -36t94 -98t34.5 -141t-34.5 -141t-94 -98t-136.5 -36q-76 0 -136 36t-94.5 98t-34.5 141zM40 350q0 -76 26.5 -142t74.5 -114.5t113 -76t141 -27.5q77 0 141.5 27.5t112.5 76t74.5 114.5t26.5 142q0 77 -26.5 142.5
t-74.5 114t-112.5 76t-141.5 27.5q-76 0 -141 -27.5t-113 -76t-74.5 -114t-26.5 -142.5zM379 300l300 -300h110l-300 300h-110z" />
    <glyph glyph-name="R" unicode="R" horiz-adv-x="560" 
d="M205 345l240 -345h105l-250 345h-95zM80 700v-700h85v700h-85zM127 625h143q45 0 79.5 -16t54 -46t19.5 -73t-19.5 -73t-54 -46t-79.5 -16h-143v-75h143q68 0 121.5 25.5t85 73t31.5 111.5q0 65 -31.5 112t-85 72.5t-121.5 25.5h-143v-75z" />
    <glyph glyph-name="S" unicode="S" horiz-adv-x="548" 
d="M106 212l-68 -46q23 -46 59.5 -86.5t85 -65t105.5 -24.5q42 0 80.5 14t69 40t48 63t17.5 83q0 48 -17 82.5t-43.5 59t-57.5 40.5t-59 26q-61 21 -96.5 42.5t-50.5 46t-15 53.5q0 34 26 61.5t83 27.5q41 0 69.5 -16t48.5 -41t33 -51l73 42q-17 37 -47 70.5t-72.5 55
t-99.5 21.5q-59 0 -105 -23.5t-72 -64.5t-26 -93q0 -48 18.5 -81t47.5 -55.5t61 -37t58 -23.5q40 -14 75.5 -31.5t57.5 -45.5t22 -75q0 -48 -34 -79t-90 -31q-42 0 -75 18t-59.5 50t-50.5 74z" />
    <glyph glyph-name="T" unicode="T" horiz-adv-x="465" 
d="M10 620h180v-620h85v620h180v80h-445v-80z" />
    <glyph glyph-name="U" unicode="U" horiz-adv-x="626" 
d="M75 700v-470q0 -52 16.5 -96t48 -76t75.5 -50t98 -18t98 18t75.5 50t48 76t16.5 96v470h-85v-470q0 -72 -39 -116t-114 -44t-114 44t-39 116v470h-85z" />
    <glyph glyph-name="V" unicode="V" horiz-adv-x="660" 
d="M330 158l-230 542h-95l325 -735l325 735h-95z" />
    <glyph glyph-name="W" unicode="W" horiz-adv-x="990" 
d="M703 185l-208 550l-204 -550l-186 515h-95l275 -735l210 544l210 -544l275 735h-95z" />
    <glyph glyph-name="X" unicode="X" horiz-adv-x="555" 
d="M430 700l-149 -259l-146 259h-100l203 -333l-228 -367h100l170 293l165 -293h100l-222 367l207 333h-100z" />
    <glyph glyph-name="Y" unicode="Y" horiz-adv-x="561" 
d="M461 700l-181 -324l-180 324h-95l233 -399v-301h85v302l233 398h-95z" />
    <glyph glyph-name="Z" unicode="Z" horiz-adv-x="545" 
d="M35 620h348l-368 -620h490v80h-348l368 620h-490v-80z" />
    <glyph glyph-name="bracketleft" unicode="[" horiz-adv-x="300" 
d="M179 705h101v75h-180v-1000h180v75h-101v850z" />
    <glyph glyph-name="backslash" unicode="\" horiz-adv-x="515" 
d="M15 700l400 -700h85l-400 700h-85z" />
    <glyph glyph-name="bracketright" unicode="]" horiz-adv-x="300" 
d="M121 -145h-101v-75h180v1000h-180v-75h101v-850z" />
    <glyph glyph-name="asciicircum" unicode="^" horiz-adv-x="510" 
d="M255 621l110 -161h80l-170 250h-40l-170 -250h80z" />
    <glyph glyph-name="underscore" unicode="_" horiz-adv-x="500" 
d="M0 -133h500v55h-500v-55z" />
    <glyph glyph-name="grave" unicode="`" horiz-adv-x="375" 
d="M75 660l180 -150l45 30l-150 160z" />
    <glyph glyph-name="a" unicode="a" horiz-adv-x="481" 
d="M111 142q0 25 12 43t36.5 28t63.5 10q42 0 79 -10.5t72 -34.5v47q-7 9 -27 23.5t-53.5 26t-83.5 11.5q-85 0 -132.5 -40.5t-47.5 -107.5q0 -47 22 -80t58.5 -50.5t78.5 -17.5q38 0 76.5 14t65 43t26.5 73l-16 60q0 -36 -17.5 -63.5t-47 -42.5t-66.5 -15q-29 0 -51.5 9.5
t-35 28.5t-12.5 45zM99 354q11 8 30 19t46.5 19t61.5 8q21 0 40 -4t33.5 -13t22.5 -24.5t8 -39.5v-319h80v330q0 45 -22.5 76t-63 47.5t-94.5 16.5q-64 0 -109.5 -19t-71.5 -38z" />
    <glyph glyph-name="b" unicode="b" 
d="M150 780h-80v-780h80v780zM535 230q0 75 -31 128.5t-82.5 82.5t-114.5 29q-57 0 -100.5 -29t-68 -82.5t-24.5 -128.5q0 -74 24.5 -128t68 -83t100.5 -29q63 0 114.5 29t82.5 83t31 128zM454 230q0 -53 -21.5 -90t-57 -56t-78.5 -19q-35 0 -69 19t-56 56t-22 90t22 90
t56 56t69 19q43 0 78.5 -19t57 -56t21.5 -90z" />
    <glyph glyph-name="c" unicode="c" horiz-adv-x="478" 
d="M111 230q0 48 20.5 85.5t56 58.5t80.5 21q37 0 69.5 -11.5t56.5 -30.5t34 -42v100q-24 28 -68.5 43.5t-91.5 15.5q-67 0 -121 -31t-85.5 -85t-31.5 -124q0 -69 31.5 -123.5t85.5 -85.5t121 -31q47 0 91.5 15.5t68.5 43.5v100q-10 -22 -34 -41.5t-56.5 -31t-69.5 -11.5
q-45 0 -80.5 21.5t-56 58.5t-20.5 85z" />
    <glyph glyph-name="d" unicode="d" 
d="M420 780v-780h80v780h-80zM35 230q0 -74 31 -128t83 -83t114 -29q58 0 101 29t67.5 83t24.5 128q0 75 -24.5 128.5t-67.5 82.5t-101 29q-62 0 -114 -29t-83 -82.5t-31 -128.5zM116 230q0 53 21.5 90t57.5 56t78 19q35 0 69 -19t56 -56t22 -90t-22 -90t-56 -56t-69 -19
q-42 0 -78 19t-57.5 56t-21.5 90z" />
    <glyph glyph-name="e" unicode="e" horiz-adv-x="515" 
d="M253 -10q74 0 128.5 29.5t90.5 87.5l-65 41q-25 -42 -61 -62.5t-83 -20.5t-80 20t-50 58t-17 92q1 53 18.5 89.5t50 56t78.5 19.5q39 0 68 -17t45.5 -47t16.5 -71q0 -7 -3 -17.5t-6 -15.5l32 46h-330v-68h393q0 2 0.5 9.5t0.5 14.5q0 73 -26 126t-74.5 81.5t-116.5 28.5
t-119.5 -30t-80 -84t-28.5 -126q0 -71 27.5 -125t77 -84.5t113.5 -30.5z" />
    <glyph glyph-name="f" unicode="f" horiz-adv-x="286" 
d="M40 460v-75h230v75h-230zM262 684l44 66q-7 10 -19.5 19t-29.5 15t-39 6q-42 0 -71.5 -17.5t-45.5 -52.5t-16 -90v-630h80v620q0 33 6 53t16.5 28.5t25.5 8.5q12 0 25.5 -4.5t23.5 -21.5z" />
    <glyph glyph-name="g" unicode="g" 
d="M44 -30q0 -59 29 -104.5t80.5 -70.5t118.5 -25q58 0 110 27t85 80.5t33 132.5v450h-80v-450q0 -58 -22.5 -94.5t-56.5 -53.5t-69 -17q-45 0 -78 17.5t-51 46t-18 61.5h-81zM35 230q0 -74 31 -128t83 -83t114 -29q58 0 101 29t67.5 83t24.5 128q0 75 -24.5 128.5
t-67.5 82.5t-101 29q-62 0 -114 -29t-83 -82.5t-31 -128.5zM116 230q0 53 21.5 90t57.5 56t78 19q26 0 52 -11t47.5 -32t34.5 -51.5t13 -70.5q0 -53 -22 -90t-56 -56t-69 -19q-42 0 -78 19t-57.5 56t-21.5 90z" />
    <glyph glyph-name="h" unicode="h" horiz-adv-x="525" 
d="M155 780h-80v-780h80v780zM370 280v-280h80v290q0 60 -19.5 100t-55 60t-83.5 20t-84.5 -25t-57.5 -67.5t-21 -97.5h26q0 33 14.5 59t41 41t61.5 15q49 0 73.5 -29t24.5 -86z" />
    <glyph glyph-name="i" unicode="i" horiz-adv-x="260" 
d="M75 650q0 -22 16.5 -38.5t38.5 -16.5q23 0 39 16.5t16 38.5q0 23 -16 39t-39 16q-22 0 -38.5 -16t-16.5 -39zM90 460v-460h80v460h-80z" />
    <glyph glyph-name="j" unicode="j" horiz-adv-x="250" 
d="M62 650q0 -22 16 -38t38 -16q23 0 38.5 16t15.5 38q0 23 -15.5 38.5t-38.5 15.5q-22 0 -38 -15.5t-16 -38.5zM-17 -114l-44 -66q10 -13 23 -22t29 -13.5t36 -4.5q42 0 72 19t45.5 55t15.5 86v520h-80v-510q0 -32 -5 -52t-15.5 -29t-27.5 -9q-16 0 -28.5 7t-20.5 19z" />
    <glyph glyph-name="k" unicode="k" horiz-adv-x="440" 
d="M70 780v-780h80v780h-80zM320 460l-200 -190l220 -270h100l-220 270l200 190h-100z" />
    <glyph glyph-name="l" unicode="l" horiz-adv-x="230" 
d="M75 780v-780h80v780h-80z" />
    <glyph glyph-name="m" unicode="m" horiz-adv-x="780" 
d="M705 290q0 57 -17.5 97.5t-50.5 61.5t-80 21q-46 0 -82 -21.5t-60 -64.5q-16 41 -50.5 63.5t-82.5 22.5q-43 0 -74.5 -19t-52.5 -58v67h-80v-460h80v280q0 36 13 62t37 39.5t57 13.5q45 0 66.5 -28t21.5 -87v-280h80v280q0 36 13 62t37 39.5t57 13.5q45 0 66.5 -28
t21.5 -87v-280h80v290z" />
    <glyph glyph-name="n" unicode="n" horiz-adv-x="525" 
d="M370 280v-280h80v290q0 83 -42.5 131.5t-115.5 48.5q-45 0 -79.5 -20t-57.5 -62v72h-80v-460h80v280q0 34 14.5 60t41 40.5t61.5 14.5q48 0 73 -29t25 -86z" />
    <glyph glyph-name="o" unicode="o" horiz-adv-x="546" 
d="M35 230q0 -69 31.5 -123.5t85.5 -85.5t121 -31q68 0 121.5 31t85 85.5t31.5 123.5q0 70 -31.5 124t-85 85t-121.5 31q-67 0 -121 -31t-85.5 -85t-31.5 -124zM116 230q0 48 20.5 85.5t56 58.5t80.5 21t80.5 -21t56 -58.5t20.5 -85.5t-20.5 -85t-56 -58.5t-80.5 -21.5
t-80.5 21.5t-56 58.5t-20.5 85z" />
    <glyph glyph-name="p" unicode="p" 
d="M150 -220v680h-80v-680h80zM535 230q0 75 -31 128.5t-82.5 82.5t-114.5 29q-57 0 -100.5 -29t-68 -82.5t-24.5 -128.5q0 -74 24.5 -128t68 -83t100.5 -29q63 0 114.5 29t82.5 83t31 128zM454 230q0 -53 -21.5 -90t-57 -56t-78.5 -19q-35 0 -69 19t-56 56t-22 90t22 90
t56 56t69 19q43 0 78.5 -19t57 -56t21.5 -90z" />
    <glyph glyph-name="q" unicode="q" 
d="M420 -220h80v680h-80v-680zM35 230q0 -74 31 -128t83 -83t114 -29q58 0 101 29t67.5 83t24.5 128q0 75 -24.5 128.5t-67.5 82.5t-101 29q-62 0 -114 -29t-83 -82.5t-31 -128.5zM116 230q0 53 21.5 90t57.5 56t78 19q35 0 69 -19t56 -56t22 -90t-22 -90t-56 -56t-69 -19
q-42 0 -78 19t-57.5 56t-21.5 90z" />
    <glyph glyph-name="r" unicode="r" horiz-adv-x="343" 
d="M155 460h-80v-460h80v460zM294 372l44 66q-18 19 -39.5 25.5t-46.5 6.5q-32 0 -63 -25t-50.5 -67.5t-19.5 -97.5h36q0 33 6.5 59t23.5 41t47 15q20 0 33 -5.5t29 -17.5z" />
    <glyph glyph-name="s" unicode="s" horiz-adv-x="403" 
d="M94 141l-63 -39q13 -27 38.5 -53t62.5 -42.5t83 -16.5q71 0 114.5 40t43.5 100q0 41 -19.5 67t-52.5 44.5t-73 34.5q-24 10 -46 21t-36 25t-14 32q0 23 18 34t43 11q36 0 64.5 -17t47.5 -43l64 41q-14 26 -39 46t-57.5 32t-69.5 12t-71.5 -13t-56 -40t-21.5 -68
q0 -40 20.5 -66.5t51 -43t60.5 -28.5q27 -10 51 -21.5t39.5 -28t15.5 -40.5q0 -27 -19.5 -42.5t-53.5 -15.5q-28 0 -51.5 10.5t-41.5 28.5t-32 39z" />
    <glyph glyph-name="t" unicode="t" horiz-adv-x="240" 
d="M5 460v-75h230v75h-230zM80 620v-620h80v620h-80z" />
    <glyph glyph-name="u" unicode="u" horiz-adv-x="525" 
d="M155 180v280h-80v-290q0 -82 43 -131t115 -49q46 0 80 20.5t57 61.5v-72h80v460h-80v-280q0 -34 -14.5 -60t-41 -40.5t-61.5 -14.5q-48 0 -73 30t-25 85z" />
    <glyph glyph-name="v" unicode="v" horiz-adv-x="440" 
d="M0 460l220 -495l220 495h-90l-130 -325l-130 325h-90z" />
    <glyph glyph-name="w" unicode="w" horiz-adv-x="680" 
d="M5 460l200 -495l131 335l139 -335l200 495h-90l-116 -301l-134 336l-125 -334l-115 299h-90z" />
    <glyph glyph-name="x" unicode="x" horiz-adv-x="420" 
d="M320 460l-110 -160l-110 160h-90l157 -223l-167 -237h90l120 174l120 -174h90l-167 237l157 223h-90z" />
    <glyph glyph-name="y" unicode="y" horiz-adv-x="440" 
d="M440 460h-90l-142 -356l33 -4l-146 360h-95l176 -395l-126 -285h90z" />
    <glyph glyph-name="z" unicode="z" horiz-adv-x="460" 
d="M300 385l-285 -385h410v75h-265l285 385h-400v-75h255z" />
    <glyph glyph-name="braceleft" unicode="{" horiz-adv-x="311" 
d="M178 660q0 20 13 35t35 15h35v70h-60q-22 0 -46 -14.5t-40.5 -45t-16.5 -80.5v-210q0 -57 -12.5 -79.5t-35.5 -30.5v-60q23 -7 35.5 -30t12.5 -80v-210q0 -49 16.5 -80t40.5 -45.5t46 -14.5h60v70h-35q-22 0 -35 15.5t-13 34.5v170q0 33 -2.5 70t-13 68.5t-33.5 51.5
t-64 20v-20q41 0 64 20t33.5 51.5t13 68.5t2.5 70v170z" />
    <glyph glyph-name="bar" unicode="|" horiz-adv-x="274" 
d="M100 785v-1000h74v1000h-74z" />
    <glyph glyph-name="braceright" unicode="}" horiz-adv-x="311" 
d="M142 -80q0 -19 -12.5 -34.5t-35.5 -15.5h-35v-70h60q22 0 46 14.5t40.5 45.5t16.5 80v210q0 57 13 80t35 30v60q-22 8 -35 30.5t-13 79.5v210q0 50 -16.5 80.5t-40.5 45t-46 14.5h-60v-70h35q23 0 35.5 -15t12.5 -35v-170q0 -33 2.5 -70t13 -68.5t33.5 -51.5t64 -20v20
q-41 0 -64 -20t-33.5 -51.5t-13 -68.5t-2.5 -70v-170z" />
    <glyph glyph-name="asciitilde" unicode="~" horiz-adv-x="575" 
d="M142 176q-2 6 -3 11.5t-1 10.5q0 26 14 40.5t41 14.5q13 0 27 -3.5t29 -10.5t30 -19q32 -24 61 -36t54 -12q27 0 51 11t43 36q13 17 17.5 36.5t4.5 34.5q0 8 -1 15t-3 13l-79 5q3 -7 4 -14t1 -13q0 -24 -10 -36.5t-32 -12.5q-13 0 -31.5 7.5t-41.5 24.5q-21 16 -42 26.5
t-41 16t-40 5.5q-31 0 -58 -13t-47 -39q-13 -18 -18.5 -36t-5.5 -34q0 -13 3 -24z" />
    <glyph glyph-name="uni00A0" unicode="&#xa0;" horiz-adv-x="300" 
 />
    <glyph glyph-name="exclamdown" unicode="&#xa1;" horiz-adv-x="300" 
d="M200 -245l-20 500h-60l-20 -500h100zM205 415q0 23 -16 39t-39 16q-22 0 -38.5 -16t-16.5 -39q0 -22 16.5 -38.5t38.5 -16.5q23 0 39 16.5t16 38.5z" />
    <glyph glyph-name="cent" unicode="&#xa2;" horiz-adv-x="580" 
d="M280 38v-150h64v150h-64zM162 230q0 48 20.5 85.5t56 58.5t80.5 21q56 0 100 -25t60 -59v100q-24 28 -68.5 43.5t-91.5 15.5q-67 0 -121 -31t-85.5 -85t-31.5 -124q0 -69 31.5 -123.5t85.5 -85.5t121 -31q47 0 91.5 15.5t68.5 43.5v100q-16 -34 -60 -59t-100 -25
q-45 0 -80.5 21.5t-56 58.5t-20.5 85zM280 578v-150h64v150h-64z" />
    <glyph glyph-name="sterling" unicode="&#xa3;" horiz-adv-x="580" 
d="M67 370v-75h360v75h-360zM450 479l71 29q-2 30 -15 65t-37 66t-61 51t-87 20q-59 0 -105.5 -23t-73 -66t-26.5 -103q0 -41 10 -71.5t25.5 -55t30.5 -46.5t25 -45t10 -51q0 -44 -18 -81.5t-52 -77t-83 -90.5h453v80h-363l-2 -30q28 8 54 27t47 47.5t33 64t12 75.5
q0 34 -9.5 59t-23.5 46t-28.5 42.5t-24 47.5t-9.5 61q0 38 17 61.5t44 34t57 10.5q32 0 56 -12.5t39.5 -33.5t24 -47.5t9.5 -53.5z" />
    <glyph glyph-name="currency" unicode="&#xa4;" horiz-adv-x="580" 
d="M37 503l94 -93l49 49l-93 94zM87 47l93 94l-49 49l-94 -93zM449 410l93 93l-49 50l-94 -94zM399 141l94 -94l49 50l-93 93zM52 300q0 -69 31.5 -123.5t85.5 -85.5t121 -31q68 0 121.5 31t85 85.5t31.5 123.5q0 70 -31.5 124t-85 85t-121.5 31q-67 0 -121 -31t-85.5 -85
t-31.5 -124zM133 300q0 48 20.5 85.5t56 58.5t80.5 21t80.5 -21t56 -58.5t20.5 -85.5t-20.5 -85.5t-56 -58.5t-80.5 -21t-80.5 21t-56 58.5t-20.5 85.5z" />
    <glyph glyph-name="yen" unicode="&#xa5;" horiz-adv-x="580" 
d="M45 290h485v75h-485v-75zM45 140h485v75h-485v-75zM471 700l-181 -324l-180 324h-95l233 -397v-303h86v306l231 394h-94z" />
    <glyph glyph-name="brokenbar" unicode="&#xa6;" horiz-adv-x="274" 
d="M100 695v-240h74v240h-74zM174 245h-74v-240h74v240z" />
    <glyph glyph-name="section" unicode="&#xa7;" horiz-adv-x="408" 
d="M310 579l64 41q-9 26 -34.5 46t-60 32t-71.5 12t-71 -14.5t-56 -41.5t-22 -65q0 -29 11.5 -50t31 -36.5t42.5 -27t47 -20.5q27 -10 50.5 -22t38.5 -28.5t15 -41.5q0 -20 -11 -40.5t-30 -34t-44 -13.5v-35q37 0 68 6.5t53.5 21.5t34.5 40t12 62q0 34 -18 59.5t-47 44.5
t-62 32q-19 8 -39 17t-36.5 19t-26.5 22t-10 25q0 16 9 25.5t25 14.5t36 5q19 0 38.5 -6t36 -18t26.5 -31zM96 161l-66 -38q7 -37 33.5 -67.5t65.5 -48t81 -17.5q37 0 68 8t53.5 25t34.5 43.5t12 63.5q0 34 -18 59.5t-47 44.5t-62 32q-19 8 -39 16t-36.5 18.5t-26.5 27
t-10 41.5q0 21 9.5 36t29.5 27t50 22v26q-43 0 -74.5 -8t-52.5 -24t-31.5 -38t-10.5 -51q0 -38 20 -66t50.5 -46.5t61.5 -31.5q27 -10 50.5 -22t38.5 -28.5t15 -41.5q0 -20 -9.5 -33t-27.5 -19t-43 -6q-28 0 -53 12.5t-42.5 34t-23.5 49.5z" />
    <glyph glyph-name="dieresis" unicode="&#xa8;" horiz-adv-x="470" 
d="M280 660q0 -22 16.5 -38.5t38.5 -16.5q23 0 39 16.5t16 38.5q0 23 -16 39t-39 16q-22 0 -38.5 -16t-16.5 -39zM80 660q0 -22 16.5 -38.5t38.5 -16.5q23 0 39 16.5t16 38.5q0 23 -16 39t-39 16q-22 0 -38.5 -16t-16.5 -39z" />
    <glyph glyph-name="copyright" unicode="&#xa9;" horiz-adv-x="800" 
d="M239 350q0 49 20.5 86t56 58t79.5 21t78.5 -17t56.5 -45v67q-26 23 -57.5 34.5t-77.5 11.5q-58 0 -105.5 -28t-76 -76.5t-28.5 -111.5q0 -62 28.5 -111t76 -77t105.5 -28q46 0 77.5 11.5t57.5 34.5v67q-22 -28 -56.5 -45t-78.5 -17t-79.5 21t-56 58t-20.5 86zM95 350
q0 67 23 123.5t64.5 98.5t97 65t120.5 23t120.5 -23t97 -65t64.5 -98.5t23 -123.5t-23 -123.5t-64.5 -98.5t-97 -65t-120.5 -23t-120.5 23t-97 65t-64.5 98.5t-23 123.5zM40 350q0 -78 27.5 -144t76 -114.5t114.5 -75t142 -26.5q77 0 142.5 26.5t114 75t76 114.5t27.5 144
t-27.5 144t-76 114.5t-114 75t-142.5 26.5q-76 0 -142 -26.5t-114.5 -75t-76 -114.5t-27.5 -144z" />
    <glyph glyph-name="ordfeminine" unicode="&#xaa;" horiz-adv-x="238" 
d="M61 532q0 21 16 36t43 15q22 0 40 -6t34 -18v24q-5 6 -24 18t-52 12q-37 0 -67.5 -22.5t-30.5 -58.5q0 -37 24.5 -57t55.5 -20q36 0 61 18.5t25 51.5l-8 25q0 -32 -21 -45.5t-47 -13.5q-28 0 -38.5 12.5t-10.5 28.5zM61 646q8 6 26 15t43 9q19 0 33.5 -9t14.5 -26v-175
h40v175q0 33 -24.5 51.5t-63.5 18.5q-31 0 -53 -9.5t-35 -18.5z" />
    <glyph glyph-name="guillemotleft" unicode="&#xab;" horiz-adv-x="510" 
d="M290 259l150 186l-50 45l-190 -235l190 -235l50 45zM130 259l150 186l-50 45l-190 -235l190 -235l50 45z" />
    <glyph glyph-name="logicalnot" unicode="&#xac;" horiz-adv-x="620" 
d="M65 300h415v-125h75v200h-490v-75z" />
    <glyph glyph-name="uni00AD" unicode="&#xad;" horiz-adv-x="210" 
d="M5 200h200v75h-200v-75z" />
    <glyph glyph-name="registered" unicode="&#xae;" horiz-adv-x="800" 
d="M349 357l144 -207h63l-150 207h-57zM274 570v-420h51v420h-51zM302 525h86q41 0 66.5 -21t25.5 -60t-25.5 -60t-66.5 -21h-86v-45h86q61 0 102 34t41 92t-41 92t-102 34h-86v-45zM95 350q0 67 23 123.5t64.5 98.5t97 65t120.5 23t120.5 -23t97 -65t64.5 -98.5t23 -123.5
t-23 -123.5t-64.5 -98.5t-97 -65t-120.5 -23t-120.5 23t-97 65t-64.5 98.5t-23 123.5zM40 350q0 -78 27.5 -144t76 -114.5t114.5 -75t142 -26.5q77 0 142.5 26.5t114 75t76 114.5t27.5 144t-27.5 144t-76 114.5t-114 75t-142.5 26.5q-76 0 -142 -26.5t-114.5 -75t-76 -114.5
t-27.5 -144z" />
    <glyph glyph-name="macron" unicode="&#xaf;" horiz-adv-x="510" 
d="M80 600h350v75h-350v-75z" />
    <glyph glyph-name="degree" unicode="&#xb0;" horiz-adv-x="278" 
d="M20 600q0 -52 34 -86t85 -34t85 34t34 86q0 53 -34 86.5t-85 33.5t-85 -33.5t-34 -86.5zM60 600q0 36 22.5 59t56.5 23t56.5 -23t22.5 -59t-22.5 -59t-56.5 -23t-56.5 23t-22.5 59z" />
    <glyph glyph-name="plusminus" unicode="&#xb1;" horiz-adv-x="615" 
d="M65 0h485v80h-485v-80zM65 345h485v80h-485v-80zM265 620v-470h85v470h-85z" />
    <glyph glyph-name="uni00B2" unicode="&#xb2;" horiz-adv-x="346" 
d="M25 282h296v48h-191l133 136q25 26 40.5 55t15.5 61q0 28 -13 57.5t-41 49.5t-74 20q-43 0 -75 -19t-49.5 -53t-17.5 -79h51q0 48 25.5 75.5t65.5 27.5q26 0 42.5 -11t25 -28t8.5 -36q0 -25 -11.5 -47.5t-32.5 -44.5z" />
    <glyph glyph-name="uni00B3" unicode="&#xb3;" horiz-adv-x="312" 
d="M141 487q41 0 71.5 14.5t48 39t17.5 53.5q0 44 -31 78t-85 34q-52 0 -85.5 -30.5t-33.5 -79.5h49q0 28 20.5 46t49.5 18q32 0 48 -18.5t16 -48.5q0 -20 -10 -36.5t-29 -26.5t-46 -10v-33zM159 274q56 0 93.5 32t37.5 85q0 42 -20.5 67.5t-54 37.5t-74.5 12v-33
q27 0 49 -8.5t35 -26t13 -43.5q0 -34 -21.5 -54.5t-57.5 -20.5t-59 19.5t-23 49.5h-52q0 -32 16.5 -59t47 -42.5t70.5 -15.5z" />
    <glyph glyph-name="acute" unicode="&#xb4;" horiz-adv-x="375" 
d="M300 660l-75 40l-150 -160l45 -30z" />
    <glyph glyph-name="mu" unicode="&#xb5;" horiz-adv-x="525" 
d="M155 460h-80v-780h80v328q17 -9 36.5 -13.5t41.5 -4.5q42 0 77.5 19t59.5 53v-62h80v460h-80v-280q0 -33 -14.5 -59t-41 -41t-61.5 -15q-49 0 -73.5 29t-24.5 86v280z" />
    <glyph glyph-name="paragraph" unicode="&#xb6;" horiz-adv-x="578" 
d="M288 270v-490h70v855h90v-855h70v920h-230q-62 0 -114 -25t-83 -72.5t-31 -117.5q0 -69 31 -117t83 -73t114 -25z" />
    <glyph glyph-name="periodcentered" unicode="&#xb7;" horiz-adv-x="300" 
d="M95 240q0 -22 16.5 -38.5t38.5 -16.5q23 0 39 16.5t16 38.5q0 23 -16 39t-39 16q-22 0 -38.5 -16t-16.5 -39z" />
    <glyph glyph-name="cedilla" unicode="&#xb8;" horiz-adv-x="350" 
d="M196 60l-85 -168q16 11 33 14.5t24 3.5q26 0 38 -9t12 -27t-12 -29t-38 -11q-19 0 -30.5 6t-25.5 18l-33 -40q21 -21 41 -29.5t48 -8.5t52 11t39.5 32t15.5 51q0 25 -11.5 41t-28 24.5t-33.5 8.5h-4.5h-4.5l64 112h-61z" />
    <glyph glyph-name="uni00B9" unicode="&#xb9;" horiz-adv-x="470" 
d="M152 611l93 28v-365h51v426l-144 -36v-53z" />
    <glyph glyph-name="ordmasculine" unicode="&#xba;" horiz-adv-x="278" 
d="M20 580q0 -52 34 -86t85 -34t85 34t34 86q0 53 -34 86.5t-85 33.5t-85 -33.5t-34 -86.5zM60 580q0 36 22.5 59t56.5 23t56.5 -23t22.5 -59t-22.5 -59t-56.5 -23t-56.5 23t-22.5 59z" />
    <glyph glyph-name="guillemotright" unicode="&#xbb;" horiz-adv-x="510" 
d="M220 251l-150 -186l50 -45l190 235l-190 235l-50 -45zM380 251l-150 -186l50 -45l190 235l-190 235l-50 -45z" />
    <glyph glyph-name="onequarter" unicode="&#xbc;" horiz-adv-x="754" 
d="M618 700l-520 -700h65l520 700h-65zM30 611l93 28v-365h51v426l-144 -36v-53zM398 84h320v45h-86h-10h-182zM452 84l149 223v-195v-6v-106h51v420h-21l-233 -336h54z" />
    <glyph glyph-name="onehalf" unicode="&#xbd;" horiz-adv-x="819" 
d="M618 700l-520 -700h65l520 700h-65zM30 611l93 28v-365h51v426l-144 -36v-53zM493 2h296v48h-191l133 136q25 26 40.5 55t15.5 61q0 28 -13 57.5t-41 49.5t-74 20q-43 0 -75 -19t-49.5 -53t-17.5 -79h51q0 48 25.5 75.5t65.5 27.5q26 0 42.5 -11t25 -28t8.5 -36
q0 -25 -11.5 -47.5t-32.5 -44.5z" />
    <glyph glyph-name="threequarters" unicode="&#xbe;" horiz-adv-x="820" 
d="M685 700l-520 -700h65l520 700h-65zM146 487q41 0 71.5 14.5t48 39t17.5 53.5q0 44 -31 78t-85 34q-52 0 -85.5 -30.5t-33.5 -79.5h49q0 28 20.5 46t49.5 18q32 0 48 -18.5t16 -48.5q0 -20 -10 -36.5t-29 -26.5t-46 -10v-33zM164 274q56 0 93.5 32t37.5 85
q0 42 -20.5 67.5t-54 37.5t-74.5 12v-33q27 0 49 -8.5t35 -26t13 -43.5q0 -34 -21.5 -54.5t-57.5 -20.5t-59 19.5t-23 49.5h-52q0 -32 16.5 -59t47 -42.5t70.5 -15.5zM465 84h320v45h-86h-10h-182zM519 84l149 223v-195v-6v-106h51v420h-21l-233 -336h54z" />
    <glyph glyph-name="questiondown" unicode="&#xbf;" horiz-adv-x="557" 
d="M141 200q0 38 23 73.5t66 58.5t103 23h26l-20 175h-60l-7 -120q-55 -3 -103.5 -31.5t-78.5 -74.5t-30 -104q0 -45 16.5 -83t46 -66.5t69 -44.5t86.5 -16q60 0 100 14.5t68 41t51 61.5l-65 41q-23 -37 -58.5 -60t-85.5 -23q-45 0 -78 16t-51 46t-18 73zM362 660
q0 23 -16 39t-39 16q-22 0 -38.5 -16t-16.5 -39q0 -22 16.5 -38.5t38.5 -16.5q23 0 39 16.5t16 38.5z" />
    <glyph glyph-name="Agrave" unicode="&#xc0;" horiz-adv-x="660" 
d="M147 210h370l-30 80h-310zM330 542l120 -282l8 -20l102 -240h95l-325 735l-325 -735h95l104 246l8 18zM200 945l180 -150l45 30l-150 160z" />
    <glyph glyph-name="Aacute" unicode="&#xc1;" horiz-adv-x="660" 
d="M147 210h370l-30 80h-310zM330 542l120 -282l8 -20l102 -240h95l-325 735l-325 -735h95l104 246l8 18zM460 945l-75 40l-150 -160l45 -30z" />
    <glyph glyph-name="Acircumflex" unicode="&#xc2;" horiz-adv-x="660" 
d="M147 210h370l-30 80h-310zM330 542l120 -282l8 -20l102 -240h95l-325 735l-325 -735h95l104 246l8 18zM330 850l110 -95l50 40l-160 140l-160 -140l50 -40z" />
    <glyph glyph-name="Atilde" unicode="&#xc3;" horiz-adv-x="660" 
d="M147 210h370l-30 80h-310zM330 542l120 -282l8 -20l102 -240h95l-325 735l-325 -735h95l104 246l8 18zM165 812l53 -37q0 8 4 20t15 21.5t31 9.5q23 0 39.5 -11.5t35.5 -23.5t46 -12q25 0 46 10.5t36.5 27.5t23.5 35l-46 43q-15 -24 -28.5 -36t-27.5 -12q-20 0 -33 7
t-24.5 16.5t-27 16.5t-39.5 7q-22 0 -44.5 -10.5t-38.5 -28.5t-21 -43z" />
    <glyph glyph-name="Adieresis" unicode="&#xc4;" horiz-adv-x="660" 
d="M147 210h370l-30 80h-310zM330 542l120 -282l8 -20l102 -240h95l-325 735l-325 -735h95l104 246l8 18zM375 850q0 -22 16.5 -38.5t38.5 -16.5q23 0 39 16.5t16 38.5q0 23 -16 39t-39 16q-22 0 -38.5 -16t-16.5 -39zM175 850q0 -22 16.5 -38.5t38.5 -16.5q23 0 39 16.5
t16 38.5q0 23 -16 39t-39 16q-22 0 -38.5 -16t-16.5 -39z" />
    <glyph glyph-name="Aring" unicode="&#xc5;" horiz-adv-x="660" 
d="M147 210h370l-30 80h-310zM330 542l120 -282l8 -20l102 -240h95l-325 735l-325 -735h95l104 246l8 18zM228 798q0 -45 31.5 -72.5t70.5 -27.5t70.5 27.5t31.5 72.5t-31.5 72.5t-70.5 27.5t-70.5 -27.5t-31.5 -72.5zM279 798q0 25 16 39t35 14t35 -14t16 -39t-16 -39
t-35 -14t-35 14t-16 39z" />
    <glyph glyph-name="AE" unicode="&#xc6;" horiz-adv-x="960" 
d="M217 210h300v80h-300v-80zM435 700l-430 -700h95l404 660zM537 0h353v80h-353v-80zM545 620h345v80h-455zM537 340h333v80h-333v-80zM490 700v-700h85v700h-85z" />
    <glyph glyph-name="Ccedilla" unicode="&#xc7;" horiz-adv-x="685" 
d="M130 350q0 82 36.5 143.5t95.5 96.5t128 35q50 0 91.5 -13t75.5 -36.5t58 -54.5v112q-44 39 -96 58t-129 19q-73 0 -136.5 -26.5t-111.5 -75t-75 -114.5t-27 -144t27 -144t75 -114.5t111.5 -75t136.5 -26.5q77 0 129 19t96 58v112q-24 -31 -58 -54.5t-75.5 -36.5
t-91.5 -13q-69 0 -128 35t-95.5 97t-36.5 143zM380 59l-86 -168q16 11 33.5 14.5t24.5 3.5q26 0 38 -9t12 -27t-12 -29t-38 -11q-19 0 -30.5 6t-25.5 18l-34 -40q21 -21 41.5 -29.5t48.5 -8.5t52 11t39 32t15 51q0 25 -11 41t-27.5 24.5t-33.5 8.5h-4.5h-4.5l63 112h-60z
" />
    <glyph glyph-name="Egrave" unicode="&#xc8;" horiz-adv-x="550" 
d="M127 0h353v80h-353v-80zM127 620h353v80h-353v-80zM127 340h333v80h-333v-80zM80 700v-700h85v700h-85zM150 920l180 -150l45 30l-150 160z" />
    <glyph glyph-name="Eacute" unicode="&#xc9;" horiz-adv-x="550" 
d="M127 0h353v80h-353v-80zM127 620h353v80h-353v-80zM127 340h333v80h-333v-80zM80 700v-700h85v700h-85zM410 920l-75 40l-150 -160l45 -30z" />
    <glyph glyph-name="Ecircumflex" unicode="&#xca;" horiz-adv-x="550" 
d="M127 0h353v80h-353v-80zM127 620h353v80h-353v-80zM127 340h333v80h-333v-80zM80 700v-700h85v700h-85zM290 865l110 -95l50 40l-160 140l-160 -140l50 -40z" />
    <glyph glyph-name="Edieresis" unicode="&#xcb;" horiz-adv-x="550" 
d="M127 0h353v80h-353v-80zM127 620h353v80h-353v-80zM127 340h333v80h-333v-80zM80 700v-700h85v700h-85zM335 845q0 -22 16.5 -38.5t38.5 -16.5q23 0 39 16.5t16 38.5q0 23 -16 39t-39 16q-22 0 -38.5 -16t-16.5 -39zM135 845q0 -22 16.5 -38.5t38.5 -16.5q23 0 39 16.5
t16 38.5q0 23 -16 39t-39 16q-22 0 -38.5 -16t-16.5 -39z" />
    <glyph glyph-name="Igrave" unicode="&#xcc;" horiz-adv-x="245" 
d="M80 700v-700h85v700h-85zM-8 920l180 -150l46 30l-150 160z" />
    <glyph glyph-name="Iacute" unicode="&#xcd;" horiz-adv-x="245" 
d="M80 700v-700h85v700h-85zM252 920l-74 40l-150 -160l44 -30z" />
    <glyph glyph-name="Icircumflex" unicode="&#xce;" horiz-adv-x="245" 
d="M80 700v-700h85v700h-85zM122 865l110 -95l50 40l-160 140l-160 -140l50 -40z" />
    <glyph glyph-name="Idieresis" unicode="&#xcf;" horiz-adv-x="245" 
d="M80 700v-700h85v700h-85zM168 825q0 -22 16 -38.5t38 -16.5q23 0 39.5 16.5t16.5 38.5q0 23 -16.5 39t-39.5 16q-22 0 -38 -16t-16 -39zM-32 825q0 -22 16 -38.5t38 -16.5q23 0 39.5 16.5t16.5 38.5q0 23 -16.5 39t-39.5 16q-22 0 -38 -16t-16 -39z" />
    <glyph glyph-name="Eth" unicode="&#xd0;" horiz-adv-x="680" 
d="M5 310h300v75h-300v-75zM80 700v-700h85v700h-85zM290 0q102 0 181 44t124 122.5t45 183.5t-45 183.5t-124 122.5t-181 44h-163v-85h163q59 0 108 -18.5t84 -53t54 -83.5t19 -110t-19 -110t-54 -83.5t-84 -53t-108 -18.5h-163v-85h163z" />
    <glyph glyph-name="Ntilde" unicode="&#xd1;" horiz-adv-x="775" 
d="M610 700v-521l-530 556v-735h85v521l530 -556v735h-85zM215 792l53 -37q0 8 4 20t15 21.5t31 9.5q23 0 39.5 -11.5t35.5 -23.5t46 -12q25 0 46 10.5t36.5 27.5t23.5 35l-46 43q-15 -24 -28.5 -36t-27.5 -12q-20 0 -33 7t-24.5 16.5t-27 16.5t-39.5 7q-22 0 -44.5 -10.5
t-38.5 -28.5t-21 -43z" />
    <glyph glyph-name="Ograve" unicode="&#xd2;" horiz-adv-x="790" 
d="M130 350q0 79 34.5 141t94.5 98t136 36q77 0 136.5 -36t94 -98t34.5 -141t-34.5 -141t-94 -98t-136.5 -36q-76 0 -136 36t-94.5 98t-34.5 141zM40 350q0 -76 26.5 -142t74.5 -114.5t113 -76t141 -27.5q77 0 141.5 27.5t112.5 76t74.5 114.5t26.5 142q0 77 -26.5 142.5
t-74.5 114t-112.5 76t-141.5 27.5q-76 0 -141 -27.5t-113 -76t-74.5 -114t-26.5 -142.5zM275 920l180 -150l45 30l-150 160z" />
    <glyph glyph-name="Oacute" unicode="&#xd3;" horiz-adv-x="790" 
d="M130 350q0 79 34.5 141t94.5 98t136 36q77 0 136.5 -36t94 -98t34.5 -141t-34.5 -141t-94 -98t-136.5 -36q-76 0 -136 36t-94.5 98t-34.5 141zM40 350q0 -76 26.5 -142t74.5 -114.5t113 -76t141 -27.5q77 0 141.5 27.5t112.5 76t74.5 114.5t26.5 142q0 77 -26.5 142.5
t-74.5 114t-112.5 76t-141.5 27.5q-76 0 -141 -27.5t-113 -76t-74.5 -114t-26.5 -142.5zM515 920l-75 40l-150 -160l45 -30z" />
    <glyph glyph-name="Ocircumflex" unicode="&#xd4;" horiz-adv-x="790" 
d="M130 350q0 79 34.5 141t94.5 98t136 36q77 0 136.5 -36t94 -98t34.5 -141t-34.5 -141t-94 -98t-136.5 -36q-76 0 -136 36t-94.5 98t-34.5 141zM40 350q0 -76 26.5 -142t74.5 -114.5t113 -76t141 -27.5q77 0 141.5 27.5t112.5 76t74.5 114.5t26.5 142q0 77 -26.5 142.5
t-74.5 114t-112.5 76t-141.5 27.5q-76 0 -141 -27.5t-113 -76t-74.5 -114t-26.5 -142.5zM395 865l110 -95l50 40l-160 140l-160 -140l50 -40z" />
    <glyph glyph-name="Otilde" unicode="&#xd5;" horiz-adv-x="790" 
d="M130 350q0 79 34.5 141t94.5 98t136 36q77 0 136.5 -36t94 -98t34.5 -141t-34.5 -141t-94 -98t-136.5 -36q-76 0 -136 36t-94.5 98t-34.5 141zM40 350q0 -76 26.5 -142t74.5 -114.5t113 -76t141 -27.5q77 0 141.5 27.5t112.5 76t74.5 114.5t26.5 142q0 77 -26.5 142.5
t-74.5 114t-112.5 76t-141.5 27.5q-76 0 -141 -27.5t-113 -76t-74.5 -114t-26.5 -142.5zM230 807l53 -37q0 8 4 20t15 21.5t31 9.5q23 0 39.5 -11.5t35.5 -23.5t46 -12q25 0 46 10.5t36.5 27.5t23.5 35l-46 43q-15 -24 -28.5 -36t-27.5 -12q-20 0 -33 7t-24.5 16.5t-27 16.5
t-39.5 7q-22 0 -44.5 -10.5t-38.5 -28.5t-21 -43z" />
    <glyph glyph-name="Odieresis" unicode="&#xd6;" horiz-adv-x="790" 
d="M130 350q0 79 34.5 141t94.5 98t136 36q77 0 136.5 -36t94 -98t34.5 -141t-34.5 -141t-94 -98t-136.5 -36q-76 0 -136 36t-94.5 98t-34.5 141zM40 350q0 -76 26.5 -142t74.5 -114.5t113 -76t141 -27.5q77 0 141.5 27.5t112.5 76t74.5 114.5t26.5 142q0 77 -26.5 142.5
t-74.5 114t-112.5 76t-141.5 27.5q-76 0 -141 -27.5t-113 -76t-74.5 -114t-26.5 -142.5zM440 825q0 -22 16.5 -38.5t38.5 -16.5q23 0 39 16.5t16 38.5q0 23 -16 39t-39 16q-22 0 -38.5 -16t-16.5 -39zM240 825q0 -22 16.5 -38.5t38.5 -16.5q23 0 39 16.5t16 38.5
q0 23 -16 39t-39 16q-22 0 -38.5 -16t-16.5 -39z" />
    <glyph glyph-name="multiply" unicode="&#xd7;" horiz-adv-x="596" 
d="M121 22l177 182l177 -182l56 56l-182 177l182 177l-56 56l-177 -182l-177 182l-56 -56l182 -177l-182 -177z" />
    <glyph glyph-name="Oslash" unicode="&#xd8;" horiz-adv-x="790" 
d="M130 350q0 79 34.5 141t94.5 98t136 36q77 0 136.5 -36t94 -98t34.5 -141t-34.5 -141t-94 -98t-136.5 -36q-76 0 -136 36t-94.5 98t-34.5 141zM40 350q0 -76 26.5 -142t74.5 -114.5t113 -76t141 -27.5q77 0 141.5 27.5t112.5 76t74.5 114.5t26.5 142q0 77 -26.5 142.5
t-74.5 114t-112.5 76t-141.5 27.5q-76 0 -141 -27.5t-113 -76t-74.5 -114t-26.5 -142.5zM688 750l-648 -760l58 -40l649 760z" />
    <glyph glyph-name="Ugrave" unicode="&#xd9;" horiz-adv-x="626" 
d="M75 700v-470q0 -52 16.5 -96t48 -76t75.5 -50t98 -18t98 18t75.5 50t48 76t16.5 96v470h-85v-470q0 -72 -39 -116t-114 -44t-114 44t-39 116v470h-85zM183 920l180 -150l45 30l-150 160z" />
    <glyph glyph-name="Uacute" unicode="&#xda;" horiz-adv-x="626" 
d="M75 700v-470q0 -52 16.5 -96t48 -76t75.5 -50t98 -18t98 18t75.5 50t48 76t16.5 96v470h-85v-470q0 -72 -39 -116t-114 -44t-114 44t-39 116v470h-85zM443 920l-75 40l-150 -160l45 -30z" />
    <glyph glyph-name="Ucircumflex" unicode="&#xdb;" horiz-adv-x="626" 
d="M75 700v-470q0 -52 16.5 -96t48 -76t75.5 -50t98 -18t98 18t75.5 50t48 76t16.5 96v470h-85v-470q0 -72 -39 -116t-114 -44t-114 44t-39 116v470h-85zM313 865l110 -95l50 40l-160 140l-160 -140l50 -40z" />
    <glyph glyph-name="Udieresis" unicode="&#xdc;" horiz-adv-x="626" 
d="M75 700v-470q0 -52 16.5 -96t48 -76t75.5 -50t98 -18t98 18t75.5 50t48 76t16.5 96v470h-85v-470q0 -72 -39 -116t-114 -44t-114 44t-39 116v470h-85zM358 825q0 -22 16.5 -38.5t38.5 -16.5q23 0 39 16.5t16 38.5q0 23 -16 39t-39 16q-22 0 -38.5 -16t-16.5 -39zM158 825
q0 -22 16.5 -38.5t38.5 -16.5q23 0 39 16.5t16 38.5q0 23 -16 39t-39 16q-22 0 -38.5 -16t-16.5 -39z" />
    <glyph glyph-name="Yacute" unicode="&#xdd;" horiz-adv-x="561" 
d="M410 920l-74 40l-150 -160l44 -30zM461 700l-181 -324l-180 324h-95l233 -399v-301h85v302l233 398h-95z" />
    <glyph glyph-name="Thorn" unicode="&#xde;" horiz-adv-x="550" 
d="M80 700v-700h85v700h-85zM127 480h143q45 0 79.5 -14.5t54 -43.5t19.5 -72t-19.5 -72t-54 -43.5t-79.5 -14.5h-143v-80h143q68 0 121.5 25.5t85 73t31.5 111.5q0 65 -31.5 112t-85 72.5t-121.5 25.5h-143v-80z" />
    <glyph glyph-name="germandbls" unicode="&#xdf;" horiz-adv-x="565" 
d="M342 -12q41 0 76 15t61.5 41.5t41.5 62t15 75.5q0 36 -12 61.5t-31 44t-40 32.5t-40 26t-31 25.5t-12 30.5q0 25 11 44.5t27.5 37.5t33 39t27.5 49.5t11 69.5q0 53 -23.5 86.5t-65 49.5t-95.5 16q-68 0 -118.5 -24t-78 -66t-27.5 -96v-610h81l-1 590q0 47 17 76.5
t46.5 43t67.5 13.5q30 0 55.5 -8t41.5 -26.5t16 -51.5q0 -31 -11.5 -55t-28.5 -44.5t-34 -40.5t-28.5 -42.5t-11.5 -50.5t12.5 -49t31.5 -37t41 -30.5t41 -30t31.5 -36t12.5 -48.5q0 -29 -13.5 -53.5t-37 -39t-53.5 -14.5q-19 0 -37.5 6.5t-35 18.5t-31.5 27l-49 -60
q18 -20 40.5 -35.5t49 -24t57.5 -8.5z" />
    <glyph glyph-name="agrave" unicode="&#xe0;" horiz-adv-x="485" 
d="M111 135q0 28 13 48t39.5 31t66.5 11q44 0 79 -11.5t69 -35.5v47q-7 9 -26 23.5t-50.5 26t-75.5 11.5q-55 0 -99.5 -18t-70.5 -53.5t-26 -89.5q0 -42 19.5 -72t55.5 -46.5t83 -16.5q48 0 87 16.5t62.5 48t23.5 75.5l-16 50q0 -43 -17.5 -69t-48.5 -38t-71 -12
q-32 0 -53.5 8.5t-32.5 25t-11 40.5zM111 352q11 8 30.5 19.5t46.5 20t60 8.5q38 0 67.5 -17.5t29.5 -52.5v-330h80v330q0 45 -22.5 76t-62 47.5t-92.5 16.5q-62 0 -106 -19t-70 -38zM88 680l180 -150l45 30l-150 160z" />
    <glyph glyph-name="aacute" unicode="&#xe1;" horiz-adv-x="485" 
d="M111 135q0 28 13 48t39.5 31t66.5 11q44 0 79 -11.5t69 -35.5v47q-7 9 -26 23.5t-50.5 26t-75.5 11.5q-55 0 -99.5 -18t-70.5 -53.5t-26 -89.5q0 -42 19.5 -72t55.5 -46.5t83 -16.5q48 0 87 16.5t62.5 48t23.5 75.5l-16 50q0 -43 -17.5 -69t-48.5 -38t-71 -12
q-32 0 -53.5 8.5t-32.5 25t-11 40.5zM111 352q11 8 30.5 19.5t46.5 20t60 8.5q38 0 67.5 -17.5t29.5 -52.5v-330h80v330q0 45 -22.5 76t-62 47.5t-92.5 16.5q-62 0 -106 -19t-70 -38zM408 680l-75 40l-150 -160l45 -30z" />
    <glyph glyph-name="acircumflex" unicode="&#xe2;" horiz-adv-x="485" 
d="M111 135q0 28 13 48t39.5 31t66.5 11q44 0 79 -11.5t69 -35.5v47q-7 9 -26 23.5t-50.5 26t-75.5 11.5q-55 0 -99.5 -18t-70.5 -53.5t-26 -89.5q0 -42 19.5 -72t55.5 -46.5t83 -16.5q48 0 87 16.5t62.5 48t23.5 75.5l-16 50q0 -43 -17.5 -69t-48.5 -38t-71 -12
q-32 0 -53.5 8.5t-32.5 25t-11 40.5zM111 352q11 8 30.5 19.5t46.5 20t60 8.5q38 0 67.5 -17.5t29.5 -52.5v-330h80v330q0 45 -22.5 76t-62 47.5t-92.5 16.5q-62 0 -106 -19t-70 -38zM248 625l110 -95l50 40l-160 140l-160 -140l50 -40z" />
    <glyph glyph-name="atilde" unicode="&#xe3;" horiz-adv-x="485" 
d="M111 135q0 28 13 48t39.5 31t66.5 11q44 0 79 -11.5t69 -35.5v47q-7 9 -26 23.5t-50.5 26t-75.5 11.5q-55 0 -99.5 -18t-70.5 -53.5t-26 -89.5q0 -42 19.5 -72t55.5 -46.5t83 -16.5q48 0 87 16.5t62.5 48t23.5 75.5l-16 50q0 -43 -17.5 -69t-48.5 -38t-71 -12
q-32 0 -53.5 8.5t-32.5 25t-11 40.5zM111 352q11 8 30.5 19.5t46.5 20t60 8.5q38 0 67.5 -17.5t29.5 -52.5v-330h80v330q0 45 -22.5 76t-62 47.5t-92.5 16.5q-62 0 -106 -19t-70 -38zM83 567l53 -37q0 8 4 20t15 21.5t31 9.5q23 0 39.5 -11.5t35.5 -23.5t46 -12
q25 0 46 10.5t36.5 27.5t23.5 35l-46 43q-15 -24 -28.5 -36t-27.5 -12q-20 0 -33 7t-24.5 16.5t-27 16.5t-39.5 7q-22 0 -44.5 -10.5t-38.5 -28.5t-21 -43z" />
    <glyph glyph-name="adieresis" unicode="&#xe4;" horiz-adv-x="485" 
d="M111 135q0 28 13 48t39.5 31t66.5 11q44 0 79 -11.5t69 -35.5v47q-7 9 -26 23.5t-50.5 26t-75.5 11.5q-55 0 -99.5 -18t-70.5 -53.5t-26 -89.5q0 -42 19.5 -72t55.5 -46.5t83 -16.5q48 0 87 16.5t62.5 48t23.5 75.5l-16 50q0 -43 -17.5 -69t-48.5 -38t-71 -12
q-32 0 -53.5 8.5t-32.5 25t-11 40.5zM111 352q11 8 30.5 19.5t46.5 20t60 8.5q38 0 67.5 -17.5t29.5 -52.5v-330h80v330q0 45 -22.5 76t-62 47.5t-92.5 16.5q-62 0 -106 -19t-70 -38zM293 585q0 -22 16.5 -38.5t38.5 -16.5q23 0 39 16.5t16 38.5q0 23 -16 39t-39 16
q-22 0 -38.5 -16t-16.5 -39zM93 585q0 -22 16.5 -38.5t38.5 -16.5q23 0 39 16.5t16 38.5q0 23 -16 39t-39 16q-22 0 -38.5 -16t-16.5 -39z" />
    <glyph glyph-name="aring" unicode="&#xe5;" horiz-adv-x="485" 
d="M111 135q0 28 13 48t39.5 31t66.5 11q44 0 79 -11.5t69 -35.5v47q-7 9 -26 23.5t-50.5 26t-75.5 11.5q-55 0 -99.5 -18t-70.5 -53.5t-26 -89.5q0 -42 19.5 -72t55.5 -46.5t83 -16.5q48 0 87 16.5t62.5 48t23.5 75.5l-16 50q0 -43 -17.5 -69t-48.5 -38t-71 -12
q-32 0 -53.5 8.5t-32.5 25t-11 40.5zM111 352q11 8 30.5 19.5t46.5 20t60 8.5q38 0 67.5 -17.5t29.5 -52.5v-330h80v330q0 45 -22.5 76t-62 47.5t-92.5 16.5q-62 0 -106 -19t-70 -38zM146 630q0 -45 31.5 -72.5t70.5 -27.5t70.5 27.5t31.5 72.5t-31.5 72.5t-70.5 27.5
t-70.5 -27.5t-31.5 -72.5zM197 630q0 25 16 39t35 14t35 -14t16 -39t-16 -39t-35 -14t-35 14t-16 39z" />
    <glyph glyph-name="ae" unicode="&#xe6;" horiz-adv-x="825" 
d="M208 -10q75 0 124 32.5t58 87.5h-10q29 -63 72.5 -91.5t110.5 -28.5q71 0 126.5 29.5t92.5 87.5l-65 41q-25 -42 -61 -62.5t-83 -20.5q-46 0 -79 19.5t-50.5 56.5t-17.5 88l-22 -19h384q1 3 1.5 9.5t0.5 14.5q0 70 -26.5 123t-73 83t-107.5 30q-41 0 -77.5 -13.5t-65 -39
t-46.5 -61.5h10q-7 56 -47.5 85t-108.5 29q-48 0 -93 -14.5t-83 -42.5l39 -61q20 15 43 26t47.5 16.5t46.5 5.5q47 0 72 -26t25 -74v-70h43q-51 32 -86 44t-76 12q-58 0 -102 -20.5t-69 -56.5t-25 -84q0 -61 48 -98t130 -37zM208 61q-50 0 -73.5 18t-23.5 56q0 44 30.5 67
t88.5 23q35 0 66 -8t58 -23l-9 27l6 -105l3 76q-9 -67 -43.5 -99t-102.5 -32zM426 239q0 49 18 85t50.5 56t76.5 20q41 0 70.5 -16.5t46 -46.5t16.5 -71v-9.5t-2 -6.5l24 28h-322z" />
    <glyph glyph-name="ccedilla" unicode="&#xe7;" horiz-adv-x="478" 
d="M111 230q0 48 20.5 85.5t56 58.5t80.5 21q37 0 69.5 -11.5t56.5 -30.5t34 -42v100q-24 28 -68.5 43.5t-91.5 15.5q-67 0 -121 -31t-85.5 -85t-31.5 -124q0 -69 31.5 -123.5t85.5 -85.5t121 -31q47 0 91.5 15.5t68.5 43.5v100q-10 -22 -34 -41.5t-56.5 -31t-69.5 -11.5
q-45 0 -80.5 21.5t-56 58.5t-20.5 85zM258 59l-86 -168q16 11 33.5 14.5t24.5 3.5q26 0 38 -9t12 -27t-12 -29t-38 -11q-19 0 -30.5 6t-25.5 18l-34 -40q21 -21 41.5 -29.5t48.5 -8.5t52 11t39 32t15 51q0 25 -11 41t-27.5 24.5t-33.5 8.5h-4.5h-4.5l63 112h-60z" />
    <glyph glyph-name="egrave" unicode="&#xe8;" horiz-adv-x="515" 
d="M86 210h393q1 6 1 12v12q0 73 -27 125.5t-76 81.5t-114 29q-59 0 -106.5 -24t-77.5 -67t-40 -100q-2 -12 -3 -24t-1 -25q0 -69 28.5 -123.5t78 -85.5t111.5 -31q60 0 100 14.5t68 41t51 61.5l-65 41q-15 -25 -36 -43.5t-47.5 -29t-60.5 -10.5q-45 0 -78 19t-51 56t-18 90
l2 30q0 43 19.5 74.5t52.5 48.5t73 17t67.5 -15.5t43 -43t19.5 -63.5h-307v-68zM123 690l180 -150l45 30l-150 160z" />
    <glyph glyph-name="eacute" unicode="&#xe9;" horiz-adv-x="515" 
d="M86 210h393q1 6 1 12v12q0 73 -27 125.5t-76 81.5t-114 29q-59 0 -106.5 -24t-77.5 -67t-40 -100q-2 -12 -3 -24t-1 -25q0 -69 28.5 -123.5t78 -85.5t111.5 -31q60 0 100 14.5t68 41t51 61.5l-65 41q-15 -25 -36 -43.5t-47.5 -29t-60.5 -10.5q-45 0 -78 19t-51 56t-18 90
l2 30q0 43 19.5 74.5t52.5 48.5t73 17t67.5 -15.5t43 -43t19.5 -63.5h-307v-68zM423 690l-75 40l-150 -160l45 -30z" />
    <glyph glyph-name="ecircumflex" unicode="&#xea;" horiz-adv-x="515" 
d="M86 210h393q1 6 1 12v12q0 73 -27 125.5t-76 81.5t-114 29q-59 0 -106.5 -24t-77.5 -67t-40 -100q-2 -12 -3 -24t-1 -25q0 -69 28.5 -123.5t78 -85.5t111.5 -31q60 0 100 14.5t68 41t51 61.5l-65 41q-15 -25 -36 -43.5t-47.5 -29t-60.5 -10.5q-45 0 -78 19t-51 56t-18 90
l2 30q0 43 19.5 74.5t52.5 48.5t73 17t67.5 -15.5t43 -43t19.5 -63.5h-307v-68zM263 625l110 -95l50 40l-160 140l-160 -140l50 -40z" />
    <glyph glyph-name="edieresis" unicode="&#xeb;" horiz-adv-x="515" 
d="M86 210h393q1 6 1 12v12q0 73 -27 125.5t-76 81.5t-114 29q-59 0 -106.5 -24t-77.5 -67t-40 -100q-2 -12 -3 -24t-1 -25q0 -69 28.5 -123.5t78 -85.5t111.5 -31q60 0 100 14.5t68 41t51 61.5l-65 41q-15 -25 -36 -43.5t-47.5 -29t-60.5 -10.5q-45 0 -78 19t-51 56t-18 90
l2 30q0 43 19.5 74.5t52.5 48.5t73 17t67.5 -15.5t43 -43t19.5 -63.5h-307v-68zM308 585q0 -22 16.5 -38.5t38.5 -16.5q23 0 39 16.5t16 38.5q0 23 -16 39t-39 16q-22 0 -38.5 -16t-16.5 -39zM108 585q0 -22 16.5 -38.5t38.5 -16.5q23 0 39 16.5t16 38.5q0 23 -16 39t-39 16
q-22 0 -38.5 -16t-16.5 -39z" />
    <glyph glyph-name="igrave" unicode="&#xec;" horiz-adv-x="260" 
d="M90 460v-460h80v460h-80zM-30 700l180 -150l45 30l-150 160z" />
    <glyph glyph-name="iacute" unicode="&#xed;" horiz-adv-x="260" 
d="M90 460v-460h80v460h-80zM290 700l-75 40l-150 -160l45 -30z" />
    <glyph glyph-name="icircumflex" unicode="&#xee;" horiz-adv-x="260" 
d="M90 460v-460h80v460h-80zM130 635l110 -95l50 40l-160 140l-160 -140l50 -40z" />
    <glyph glyph-name="idieresis" unicode="&#xef;" horiz-adv-x="260" 
d="M90 460v-460h80v460h-80zM175 615q0 -22 16.5 -38.5t38.5 -16.5q23 0 39 16.5t16 38.5q0 23 -16 39t-39 16q-22 0 -38.5 -16t-16.5 -39zM-25 615q0 -22 16.5 -38.5t38.5 -16.5q23 0 39 16.5t16 38.5q0 23 -16 39t-39 16q-22 0 -38.5 -16t-16.5 -39z" />
    <glyph glyph-name="eth" unicode="&#xf0;" horiz-adv-x="576" 
d="M288 -10q70 0 123.5 31t84 85t30.5 124q0 40 -11 82.5t-34.5 88t-59.5 96t-86 107.5t-114 121l-48 -56q43 -39 78 -75t63 -70.5t50.5 -68.5t38.5 -69h46q-101 71 -192 71q-60 0 -106.5 -29.5t-73.5 -80.5t-27 -117q0 -70 30.5 -124t84.5 -85t123 -31zM288 67
q-46 0 -81.5 21t-55.5 58t-20 84q0 48 20.5 85t56 58.5t80.5 21.5t80.5 -21.5t56 -58.5t20.5 -85q0 -47 -20 -84t-55.5 -58t-81.5 -21zM184 503l280 107l-18 47l-280 -107z" />
    <glyph glyph-name="ntilde" unicode="&#xf1;" horiz-adv-x="525" 
d="M155 460h-80v-460h80v460zM370 280v-280h80v290q0 89 -43.5 134.5t-114.5 45.5q-48 0 -87 -25t-62.5 -67.5t-23.5 -97.5h36q0 33 14.5 59t41 41t61.5 15q49 0 73.5 -29t24.5 -86zM98 567l53 -37q0 8 4 20t15 21.5t31 9.5q23 0 39.5 -11.5t35.5 -23.5t46 -12q25 0 46 10.5
t36.5 27.5t23.5 35l-46 43q-15 -24 -28.5 -36t-27.5 -12q-20 0 -33 7t-24.5 16.5t-27 16.5t-39.5 7q-22 0 -44.5 -10.5t-38.5 -28.5t-21 -43z" />
    <glyph glyph-name="ograve" unicode="&#xf2;" horiz-adv-x="546" 
d="M35 230q0 -69 31.5 -123.5t85.5 -85.5t121 -31q68 0 121.5 31t85 85.5t31.5 123.5q0 70 -31.5 124t-85 85t-121.5 31q-67 0 -121 -31t-85.5 -85t-31.5 -124zM116 230q0 48 20.5 85.5t56 58.5t80.5 21t80.5 -21t56 -58.5t20.5 -85.5t-20.5 -85t-56 -58.5t-80.5 -21.5
t-80.5 21.5t-56 58.5t-20.5 85zM113 700l180 -150l45 30l-150 160z" />
    <glyph glyph-name="oacute" unicode="&#xf3;" horiz-adv-x="546" 
d="M35 230q0 -69 31.5 -123.5t85.5 -85.5t121 -31q68 0 121.5 31t85 85.5t31.5 123.5q0 70 -31.5 124t-85 85t-121.5 31q-67 0 -121 -31t-85.5 -85t-31.5 -124zM116 230q0 48 20.5 85.5t56 58.5t80.5 21t80.5 -21t56 -58.5t20.5 -85.5t-20.5 -85t-56 -58.5t-80.5 -21.5
t-80.5 21.5t-56 58.5t-20.5 85zM433 700l-75 40l-150 -160l45 -30z" />
    <glyph glyph-name="ocircumflex" unicode="&#xf4;" horiz-adv-x="546" 
d="M35 230q0 -69 31.5 -123.5t85.5 -85.5t121 -31q68 0 121.5 31t85 85.5t31.5 123.5q0 70 -31.5 124t-85 85t-121.5 31q-67 0 -121 -31t-85.5 -85t-31.5 -124zM116 230q0 48 20.5 85.5t56 58.5t80.5 21t80.5 -21t56 -58.5t20.5 -85.5t-20.5 -85t-56 -58.5t-80.5 -21.5
t-80.5 21.5t-56 58.5t-20.5 85zM273 645l110 -95l50 40l-160 140l-160 -140l50 -40z" />
    <glyph glyph-name="otilde" unicode="&#xf5;" horiz-adv-x="546" 
d="M35 230q0 -69 31.5 -123.5t85.5 -85.5t121 -31q68 0 121.5 31t85 85.5t31.5 123.5q0 70 -31.5 124t-85 85t-121.5 31q-67 0 -121 -31t-85.5 -85t-31.5 -124zM116 230q0 48 20.5 85.5t56 58.5t80.5 21t80.5 -21t56 -58.5t20.5 -85.5t-20.5 -85t-56 -58.5t-80.5 -21.5
t-80.5 21.5t-56 58.5t-20.5 85zM108 567l53 -37q0 8 4 20t15 21.5t31 9.5q23 0 39.5 -11.5t35.5 -23.5t46 -12q25 0 46 10.5t36.5 27.5t23.5 35l-46 43q-15 -24 -28.5 -36t-27.5 -12q-20 0 -33 7t-24.5 16.5t-27 16.5t-39.5 7q-22 0 -44.5 -10.5t-38.5 -28.5t-21 -43z" />
    <glyph glyph-name="odieresis" unicode="&#xf6;" horiz-adv-x="546" 
d="M35 230q0 -69 31.5 -123.5t85.5 -85.5t121 -31q68 0 121.5 31t85 85.5t31.5 123.5q0 70 -31.5 124t-85 85t-121.5 31q-67 0 -121 -31t-85.5 -85t-31.5 -124zM116 230q0 48 20.5 85.5t56 58.5t80.5 21t80.5 -21t56 -58.5t20.5 -85.5t-20.5 -85t-56 -58.5t-80.5 -21.5
t-80.5 21.5t-56 58.5t-20.5 85zM318 615q0 -22 16.5 -38.5t38.5 -16.5q23 0 39 16.5t16 38.5q0 23 -16 39t-39 16q-22 0 -38.5 -16t-16.5 -39zM118 615q0 -22 16.5 -38.5t38.5 -16.5q23 0 39 16.5t16 38.5q0 23 -16 39t-39 16q-22 0 -38.5 -16t-16.5 -39z" />
    <glyph glyph-name="divide" unicode="&#xf7;" horiz-adv-x="623" 
d="M255 450q0 -22 16.5 -38.5t38.5 -16.5q23 0 39 16.5t16 38.5q0 23 -16 39t-39 16q-22 0 -38.5 -16t-16.5 -39zM255 70q0 -22 16.5 -38.5t38.5 -16.5q23 0 39 16.5t16 38.5q0 23 -16 39t-39 16q-22 0 -38.5 -16t-16.5 -39zM60 225h500v80h-500v-80z" />
    <glyph glyph-name="oslash" unicode="&#xf8;" horiz-adv-x="546" 
d="M35 230q0 -69 31.5 -123.5t85.5 -85.5t121 -31q68 0 121.5 31t85 85.5t31.5 123.5q0 70 -31.5 124t-85 85t-121.5 31q-67 0 -121 -31t-85.5 -85t-31.5 -124zM116 230q0 48 20.5 85.5t56 58.5t80.5 21t80.5 -21t56 -58.5t20.5 -85.5t-20.5 -85t-56 -58.5t-80.5 -21.5
t-80.5 21.5t-56 58.5t-20.5 85zM440 500l-390 -524l45 -20l390 524z" />
    <glyph glyph-name="ugrave" unicode="&#xf9;" horiz-adv-x="525" 
d="M370 0h80v460h-80v-460zM155 180v280h-80v-290q0 -89 43.5 -134.5t114.5 -45.5q48 0 87 25t62.5 67.5t23.5 97.5h-36q0 -33 -14.5 -59t-41 -41t-61.5 -15q-49 0 -73.5 29t-24.5 86zM142 700l180 -150l46 30l-150 160z" />
    <glyph glyph-name="uacute" unicode="&#xfa;" horiz-adv-x="525" 
d="M370 0h80v460h-80v-460zM155 180v280h-80v-290q0 -89 43.5 -134.5t114.5 -45.5q48 0 87 25t62.5 67.5t23.5 97.5h-36q0 -33 -14.5 -59t-41 -41t-61.5 -15q-49 0 -73.5 29t-24.5 86zM382 700l-74 40l-150 -160l44 -30z" />
    <glyph glyph-name="ucircumflex" unicode="&#xfb;" horiz-adv-x="525" 
d="M370 0h80v460h-80v-460zM155 180v280h-80v-290q0 -89 43.5 -134.5t114.5 -45.5q48 0 87 25t62.5 67.5t23.5 97.5h-36q0 -33 -14.5 -59t-41 -41t-61.5 -15q-49 0 -73.5 29t-24.5 86zM262 645l110 -95l50 40l-160 140l-160 -140l50 -40z" />
    <glyph glyph-name="udieresis" unicode="&#xfc;" horiz-adv-x="525" 
d="M370 0h80v460h-80v-460zM155 180v280h-80v-290q0 -89 43.5 -134.5t114.5 -45.5q48 0 87 25t62.5 67.5t23.5 97.5h-36q0 -33 -14.5 -59t-41 -41t-61.5 -15q-49 0 -73.5 29t-24.5 86zM308 605q0 -22 16 -38.5t38 -16.5q23 0 39.5 16.5t16.5 38.5q0 23 -16.5 39t-39.5 16
q-22 0 -38 -16t-16 -39zM108 605q0 -22 16 -38.5t38 -16.5q23 0 39.5 16.5t16.5 38.5q0 23 -16.5 39t-39.5 16q-22 0 -38 -16t-16 -39z" />
    <glyph glyph-name="yacute" unicode="&#xfd;" horiz-adv-x="440" 
d="M440 460h-90l-142 -356l33 -4l-146 360h-95l176 -395l-126 -285h90zM350 700l-75 40l-150 -160l45 -30z" />
    <glyph glyph-name="thorn" unicode="&#xfe;" 
d="M150 -220v1000h-80v-1000h80zM535 230q0 75 -31 128.5t-82.5 82.5t-114.5 29q-57 0 -100.5 -29t-68 -82.5t-24.5 -128.5q0 -74 24.5 -128t68 -83t100.5 -29q63 0 114.5 29t82.5 83t31 128zM454 230q0 -53 -21.5 -90t-57 -56t-78.5 -19q-35 0 -69 19t-56 56t-22 90t22 90
t56 56t69 19q43 0 78.5 -19t57 -56t21.5 -90z" />
    <glyph glyph-name="ydieresis" unicode="&#xff;" horiz-adv-x="440" 
d="M440 460h-90l-142 -356l33 -4l-146 360h-95l176 -395l-126 -285h90zM265 585q0 -22 16.5 -38.5t38.5 -16.5q23 0 39 16.5t16 38.5q0 23 -16 39t-39 16q-22 0 -38.5 -16t-16.5 -39zM65 585q0 -22 16.5 -38.5t38.5 -16.5q23 0 39 16.5t16 38.5q0 23 -16 39t-39 16
q-22 0 -38.5 -16t-16.5 -39z" />
    <glyph glyph-name="Amacron" unicode="&#x100;" horiz-adv-x="660" 
d="M147 210h370l-30 80h-310zM330 542l120 -282l8 -20l102 -240h95l-325 735l-325 -735h95l104 246l8 18zM155 795h350v75h-350v-75z" />
    <glyph glyph-name="amacron" unicode="&#x101;" horiz-adv-x="485" 
d="M111 135q0 28 13 48t39.5 31t66.5 11q44 0 79 -11.5t69 -35.5v47q-7 9 -26 23.5t-50.5 26t-75.5 11.5q-55 0 -99.5 -18t-70.5 -53.5t-26 -89.5q0 -42 19.5 -72t55.5 -46.5t83 -16.5q48 0 87 16.5t62.5 48t23.5 75.5l-16 50q0 -43 -17.5 -69t-48.5 -38t-71 -12
q-32 0 -53.5 8.5t-32.5 25t-11 40.5zM111 352q11 8 30.5 19.5t46.5 20t60 8.5q38 0 67.5 -17.5t29.5 -52.5v-330h80v330q0 45 -22.5 76t-62 47.5t-92.5 16.5q-62 0 -106 -19t-70 -38zM73 550h350v75h-350v-75z" />
    <glyph glyph-name="Abreve" unicode="&#x102;" horiz-adv-x="660" 
d="M147 210h370l-30 80h-310zM330 542l120 -282l8 -20l102 -240h95l-325 735l-325 -735h95l104 246l8 18zM172 935q0 -34 17.5 -66.5t53 -53t87.5 -20.5q53 0 88 20.5t52.5 53t17.5 66.5h-71q0 -13 -7 -30.5t-26 -31t-54 -13.5t-54 13.5t-26 31t-7 30.5h-71z" />
    <glyph glyph-name="abreve" unicode="&#x103;" horiz-adv-x="485" 
d="M111 135q0 28 13 48t39.5 31t66.5 11q44 0 79 -11.5t69 -35.5v47q-7 9 -26 23.5t-50.5 26t-75.5 11.5q-55 0 -99.5 -18t-70.5 -53.5t-26 -89.5q0 -42 19.5 -72t55.5 -46.5t83 -16.5q48 0 87 16.5t62.5 48t23.5 75.5l-16 50q0 -43 -17.5 -69t-48.5 -38t-71 -12
q-32 0 -53.5 8.5t-32.5 25t-11 40.5zM111 352q11 8 30.5 19.5t46.5 20t60 8.5q38 0 67.5 -17.5t29.5 -52.5v-330h80v330q0 45 -22.5 76t-62 47.5t-92.5 16.5q-62 0 -106 -19t-70 -38zM90 670q0 -34 17.5 -66.5t53 -53t87.5 -20.5q53 0 88 20.5t52.5 53t17.5 66.5h-71
q0 -13 -7 -30.5t-26 -31t-54 -13.5t-54 13.5t-26 31t-7 30.5h-71z" />
    <glyph glyph-name="Aogonek" unicode="&#x104;" horiz-adv-x="660" 
d="M147 210h370l-30 80h-310zM330 542l120 -282l8 -20l102 -240h95l-325 735l-325 -735h95l104 246l8 18zM660 -130q-10 -10 -20 -15t-30 -5q-22 0 -35 11.5t-13 38.5q0 19 12.5 37.5t33.5 35t47 27.5l-41 25q-35 -18 -65 -40.5t-48.5 -48.5t-18.5 -56q0 -29 13.5 -52
t40.5 -35.5t69 -12.5q32 0 54.5 12.5t33.5 27.5z" />
    <glyph glyph-name="aogonek" unicode="&#x105;" horiz-adv-x="485" 
d="M111 135q0 28 13 48t39.5 31t66.5 11q44 0 79 -11.5t69 -35.5v47q-7 9 -26 23.5t-50.5 26t-75.5 11.5q-60 0 -104 -18.5t-68 -52.5t-24 -83q0 -47 21.5 -78.5t57.5 -47.5t79 -16q48 0 87 16.5t62.5 48t23.5 75.5l-16 50q0 -43 -17.5 -69t-48.5 -38t-71 -12q-27 0 -49 8.5
t-35 25t-13 40.5zM111 352q11 8 30.5 19.5t46.5 20t60 8.5q38 0 67.5 -17.5t29.5 -52.5v-330h80v330q0 45 -22.5 76t-62 47.5t-92.5 16.5q-62 0 -106 -19t-70 -38zM430 -130q-10 -10 -20 -15t-30 -5q-22 0 -35 11.5t-13 38.5q0 19 12.5 37.5t33.5 35t47 27.5l-41 25
q-35 -18 -65 -40.5t-48.5 -48.5t-18.5 -56q0 -29 13.5 -52t40.5 -35.5t69 -12.5q32 0 54.5 12.5t33.5 27.5z" />
    <glyph glyph-name="Cacute" unicode="&#x106;" horiz-adv-x="685" 
d="M130 350q0 82 36.5 143.5t95.5 96.5t128 35q50 0 91.5 -13t75.5 -36.5t58 -54.5v112q-44 39 -96 58t-129 19q-73 0 -136.5 -26.5t-111.5 -75t-75 -114.5t-27 -144t27 -144t75 -114.5t111.5 -75t136.5 -26.5q77 0 129 19t96 58v112q-24 -31 -58 -54.5t-75.5 -36.5
t-91.5 -13q-69 0 -128 35t-95.5 97t-36.5 143zM520 920l-75 40l-150 -160l45 -30z" />
    <glyph glyph-name="cacute" unicode="&#x107;" horiz-adv-x="478" 
d="M111 230q0 48 20.5 85.5t56 58.5t80.5 21q37 0 69.5 -11.5t56.5 -30.5t34 -42v100q-24 28 -68.5 43.5t-91.5 15.5q-67 0 -121 -31t-85.5 -85t-31.5 -124q0 -69 31.5 -123.5t85.5 -85.5t121 -31q47 0 91.5 15.5t68.5 43.5v100q-10 -22 -34 -41.5t-56.5 -31t-69.5 -11.5
q-45 0 -80.5 21.5t-56 58.5t-20.5 85zM398 680l-75 40l-150 -160l45 -30z" />
    <glyph glyph-name="Ccircumflex" unicode="&#x108;" horiz-adv-x="685" 
d="M130 350q0 82 36.5 143.5t95.5 96.5t128 35q50 0 91.5 -13t75.5 -36.5t58 -54.5v112q-44 39 -96 58t-129 19q-73 0 -136.5 -26.5t-111.5 -75t-75 -114.5t-27 -144t27 -144t75 -114.5t111.5 -75t136.5 -26.5q77 0 129 19t96 58v112q-24 -31 -58 -54.5t-75.5 -36.5
t-91.5 -13q-69 0 -128 35t-95.5 97t-36.5 143zM390 865l110 -95l50 40l-160 140l-160 -140l50 -40z" />
    <glyph glyph-name="ccircumflex" unicode="&#x109;" horiz-adv-x="478" 
d="M111 230q0 48 20.5 85.5t56 58.5t80.5 21q37 0 69.5 -11.5t56.5 -30.5t34 -42v100q-24 28 -68.5 43.5t-91.5 15.5q-67 0 -121 -31t-85.5 -85t-31.5 -124q0 -69 31.5 -123.5t85.5 -85.5t121 -31q47 0 91.5 15.5t68.5 43.5v100q-10 -22 -34 -41.5t-56.5 -31t-69.5 -11.5
q-45 0 -80.5 21.5t-56 58.5t-20.5 85zM268 625l110 -95l50 40l-160 140l-160 -140l50 -40z" />
    <glyph glyph-name="Cdotaccent" unicode="&#x10a;" horiz-adv-x="685" 
d="M130 350q0 82 36.5 143.5t95.5 96.5t128 35q50 0 91.5 -13t75.5 -36.5t58 -54.5v112q-44 39 -96 58t-129 19q-73 0 -136.5 -26.5t-111.5 -75t-75 -114.5t-27 -144t27 -144t75 -114.5t111.5 -75t136.5 -26.5q77 0 129 19t96 58v112q-24 -31 -58 -54.5t-75.5 -36.5
t-91.5 -13q-69 0 -128 35t-95.5 97t-36.5 143zM335 825q0 -22 16.5 -38.5t38.5 -16.5q23 0 39 16.5t16 38.5q0 23 -16 39t-39 16q-22 0 -38.5 -16t-16.5 -39z" />
    <glyph glyph-name="cdotaccent" unicode="&#x10b;" horiz-adv-x="478" 
d="M111 230q0 48 20.5 85.5t56 58.5t80.5 21q37 0 69.5 -11.5t56.5 -30.5t34 -42v100q-24 28 -68.5 43.5t-91.5 15.5q-67 0 -121 -31t-85.5 -85t-31.5 -124q0 -69 31.5 -123.5t85.5 -85.5t121 -31q47 0 91.5 15.5t68.5 43.5v100q-10 -22 -34 -41.5t-56.5 -31t-69.5 -11.5
q-45 0 -80.5 21.5t-56 58.5t-20.5 85zM213 585q0 -22 16.5 -38.5t38.5 -16.5q23 0 39 16.5t16 38.5q0 23 -16 39t-39 16q-22 0 -38.5 -16t-16.5 -39z" />
    <glyph glyph-name="Ccaron" unicode="&#x10c;" horiz-adv-x="685" 
d="M130 350q0 82 36.5 143.5t95.5 96.5t128 35q50 0 91.5 -13t75.5 -36.5t58 -54.5v112q-44 39 -96 58t-129 19q-73 0 -136.5 -26.5t-111.5 -75t-75 -114.5t-27 -144t27 -144t75 -114.5t111.5 -75t136.5 -26.5q77 0 129 19t96 58v112q-24 -31 -58 -54.5t-75.5 -36.5
t-91.5 -13q-69 0 -128 35t-95.5 97t-36.5 143zM390 855l-110 95l-50 -40l160 -140l160 140l-50 40z" />
    <glyph glyph-name="ccaron" unicode="&#x10d;" horiz-adv-x="478" 
d="M111 230q0 48 20.5 85.5t56 58.5t80.5 21q37 0 69.5 -11.5t56.5 -30.5t34 -42v100q-24 28 -68.5 43.5t-91.5 15.5q-67 0 -121 -31t-85.5 -85t-31.5 -124q0 -69 31.5 -123.5t85.5 -85.5t121 -31q47 0 91.5 15.5t68.5 43.5v100q-10 -22 -34 -41.5t-56.5 -31t-69.5 -11.5
q-45 0 -80.5 21.5t-56 58.5t-20.5 85zM268 615l-110 95l-50 -40l160 -140l160 140l-50 40z" />
    <glyph glyph-name="Dcaron" unicode="&#x10e;" horiz-adv-x="680" 
d="M80 700v-700h85v700h-85zM290 0q102 0 181 44t124 122.5t45 183.5t-45 183.5t-124 122.5t-181 44h-163v-85h163q59 0 108 -18.5t84 -53t54 -83.5t19 -110t-19 -110t-54 -83.5t-84 -53t-108 -18.5h-163v-85h163zM330 855l-110 95l-50 -40l160 -140l160 140l-50 40z" />
    <glyph glyph-name="dcaron" unicode="&#x10f;" 
d="M420 780v-780h80v780h-80zM35 230q0 -74 31 -128t83 -83t114 -29q58 0 101 29t67.5 83t24.5 128q0 75 -24.5 128.5t-67.5 82.5t-101 29q-62 0 -114 -29t-83 -82.5t-31 -128.5zM116 230q0 53 21.5 90t57.5 56t78 19q35 0 69 -19t56 -56t22 -90t-22 -90t-56 -56t-69 -19
q-42 0 -78 19t-57.5 56t-21.5 90zM618 780l-88 -259l58 -21l110 250z" />
    <glyph glyph-name="Dcroat" unicode="&#x110;" horiz-adv-x="680" 
d="M5 310h300v75h-300v-75zM80 700v-700h85v700h-85zM290 0q102 0 181 44t124 122.5t45 183.5t-45 183.5t-124 122.5t-181 44h-163v-85h163q59 0 108 -18.5t84 -53t54 -83.5t19 -110t-19 -110t-54 -83.5t-84 -53t-108 -18.5h-163v-85h163z" />
    <glyph glyph-name="dcroat" unicode="&#x111;" 
d="M295 590h300v75h-300v-75zM420 780v-780h80v780h-80zM35 230q0 -74 31 -128t83 -83t114 -29q58 0 101 29t67.5 83t24.5 128q0 75 -24.5 128.5t-67.5 82.5t-101 29q-62 0 -114 -29t-83 -82.5t-31 -128.5zM116 230q0 53 21.5 90t57.5 56t78 19q26 0 52 -11t47.5 -32
t34.5 -51.5t13 -70.5t-13 -70.5t-34.5 -51.5t-47.5 -32t-52 -11q-42 0 -78 19t-57.5 56t-21.5 90z" />
    <glyph glyph-name="Emacron" unicode="&#x112;" horiz-adv-x="550" 
d="M127 0h353v80h-353v-80zM127 620h353v80h-353v-80zM127 340h333v80h-333v-80zM80 700v-700h85v700h-85zM105 770h350v75h-350v-75z" />
    <glyph glyph-name="emacron" unicode="&#x113;" horiz-adv-x="515" 
d="M86 210h393q1 6 1 12v12q0 73 -27 125.5t-76 81.5t-114 29q-59 0 -106.5 -24t-77.5 -67t-40 -100q-2 -12 -3 -24t-1 -25q0 -69 28.5 -123.5t78 -85.5t111.5 -31q60 0 100 14.5t68 41t51 61.5l-65 41q-15 -25 -36 -43.5t-47.5 -29t-60.5 -10.5q-45 0 -78 19t-51 56t-18 90
l2 30q0 43 19.5 74.5t52.5 48.5t73 17t67.5 -15.5t43 -43t19.5 -63.5h-307v-68zM88 530h350v75h-350v-75z" />
    <glyph glyph-name="Ebreve" unicode="&#x114;" horiz-adv-x="550" 
d="M127 0h353v80h-353v-80zM127 620h353v80h-353v-80zM127 340h333v80h-333v-80zM80 700v-700h85v700h-85zM122 910q0 -34 17.5 -66.5t53 -53t87.5 -20.5q53 0 88 20.5t52.5 53t17.5 66.5h-71q0 -13 -7 -30.5t-26 -31t-54 -13.5t-54 13.5t-26 31t-7 30.5h-71z" />
    <glyph glyph-name="ebreve" unicode="&#x115;" horiz-adv-x="515" 
d="M86 210h393q1 6 1 12v12q0 73 -27 125.5t-76 81.5t-114 29q-59 0 -106.5 -24t-77.5 -67t-40 -100q-2 -12 -3 -24t-1 -25q0 -69 28.5 -123.5t78 -85.5t111.5 -31q60 0 100 14.5t68 41t51 61.5l-65 41q-15 -25 -36 -43.5t-47.5 -29t-60.5 -10.5q-45 0 -78 19t-51 56t-18 90
l2 30q0 43 19.5 74.5t52.5 48.5t73 17t67.5 -15.5t43 -43t19.5 -63.5h-307v-68zM105 670q0 -34 17.5 -66.5t53 -53t87.5 -20.5q53 0 88 20.5t52.5 53t17.5 66.5h-71q0 -13 -7 -30.5t-26 -31t-54 -13.5t-54 13.5t-26 31t-7 30.5h-71z" />
    <glyph glyph-name="Edotaccent" unicode="&#x116;" horiz-adv-x="550" 
d="M127 0h353v80h-353v-80zM127 620h353v80h-353v-80zM127 340h333v80h-333v-80zM80 700v-700h85v700h-85zM225 825q0 -22 16.5 -38.5t38.5 -16.5q23 0 39 16.5t16 38.5q0 23 -16 39t-39 16q-22 0 -38.5 -16t-16.5 -39z" />
    <glyph glyph-name="edotaccent" unicode="&#x117;" horiz-adv-x="515" 
d="M86 210h393q1 6 1 12v12q0 73 -27 125.5t-76 81.5t-114 29q-59 0 -106.5 -24t-77.5 -67t-40 -100q-2 -12 -3 -24t-1 -25q0 -69 28.5 -123.5t78 -85.5t111.5 -31q60 0 100 14.5t68 41t51 61.5l-65 41q-15 -25 -36 -43.5t-47.5 -29t-60.5 -10.5q-45 0 -78 19t-51 56t-18 90
l2 30q0 43 19.5 74.5t52.5 48.5t73 17t67.5 -15.5t43 -43t19.5 -63.5h-307v-68zM208 585q0 -22 16.5 -38.5t38.5 -16.5q23 0 39 16.5t16 38.5q0 23 -16 39t-39 16q-22 0 -38.5 -16t-16.5 -39z" />
    <glyph glyph-name="Eogonek" unicode="&#x118;" horiz-adv-x="550" 
d="M127 0h353v80h-353v-80zM127 620h353v80h-353v-80zM127 340h333v80h-333v-80zM80 700v-700h85v700h-85zM365 -130q-10 -10 -20 -15t-30 -5q-22 0 -35 11.5t-13 38.5q0 19 12.5 37.5t33.5 35t47 27.5l-41 25q-35 -18 -65 -40.5t-48.5 -48.5t-18.5 -56q0 -29 13.5 -52
t40.5 -35.5t69 -12.5q32 0 54.5 12.5t33.5 27.5z" />
    <glyph glyph-name="eogonek" unicode="&#x119;" horiz-adv-x="515" 
d="M86 210h393q1 6 1 12v12q0 73 -27 125.5t-76 81.5t-114 29q-59 0 -106.5 -24t-77.5 -67t-40 -100q-2 -12 -3 -24t-1 -25q0 -69 28.5 -123.5t78 -85.5t111.5 -31q45 0 75.5 10t53.5 26.5t44 37.5t46 43l-65 41q-15 -25 -36 -43.5t-47.5 -29t-60.5 -10.5q-45 0 -78 19
t-51 56t-18 90l2 30q0 43 19.5 74.5t52.5 48.5t73 17t67.5 -15.5t43 -43t19.5 -63.5h-307v-68zM444 -65q-10 -10 -20 -15t-30 -5q-22 0 -35 10.5t-13 29.5t11.5 35t39.5 42.5t75 74.5l-74 -17q-22 -21 -45.5 -41t-43 -39.5t-31.5 -40t-12 -42.5q0 -29 16 -47.5t42 -26.5
t55 -8q32 0 59.5 12.5t38.5 27.5z" />
    <glyph glyph-name="Ecaron" unicode="&#x11a;" horiz-adv-x="550" 
d="M127 0h353v80h-353v-80zM127 620h353v80h-353v-80zM127 340h333v80h-333v-80zM80 700v-700h85v700h-85zM280 855l-110 95l-50 -40l160 -140l160 140l-50 40z" />
    <glyph glyph-name="ecaron" unicode="&#x11b;" horiz-adv-x="515" 
d="M86 210h393q1 6 1 12v12q0 73 -27 125.5t-76 81.5t-114 29q-59 0 -106.5 -24t-77.5 -67t-40 -100q-2 -12 -3 -24t-1 -25q0 -69 28.5 -123.5t78 -85.5t111.5 -31q60 0 100 14.5t68 41t51 61.5l-65 41q-15 -25 -36 -43.5t-47.5 -29t-60.5 -10.5q-45 0 -78 19t-51 56t-18 90
l2 30q0 43 19.5 74.5t52.5 48.5t73 17t67.5 -15.5t43 -43t19.5 -63.5h-307v-68zM263 615l-110 95l-50 -40l160 -140l160 140l-50 40z" />
    <glyph glyph-name="Gcircumflex" unicode="&#x11c;" horiz-adv-x="775" 
d="M405 275h233q-9 -41 -28.5 -77t-49.5 -64t-71.5 -43.5t-93.5 -15.5q-74 0 -134 35t-95.5 97t-35.5 143q0 82 35.5 143.5t95.5 96.5t134 35q80 0 139 -31.5t92 -87.5l60 55q-30 49 -73.5 82t-98 50t-119.5 17q-76 0 -141 -26.5t-113 -75t-74.5 -114.5t-26.5 -144
t26.5 -144t74.5 -114.5t113 -75t141 -26.5q80 0 142.5 29.5t105.5 80.5t65 116.5t22 138.5h-325v-80zM395 865l110 -95l50 40l-160 140l-160 -140l50 -40z" />
    <glyph glyph-name="gcircumflex" unicode="&#x11d;" 
d="M44 -30q0 -59 29 -104.5t80.5 -70.5t118.5 -25q58 0 110 27t85 80.5t33 132.5v450h-80v-450q0 -58 -22.5 -94.5t-56.5 -53.5t-69 -17q-45 0 -78 17.5t-51 46t-18 61.5h-81zM35 230q0 -74 31 -128t83 -83t114 -29q58 0 101 29t67.5 83t24.5 128q0 75 -24.5 128.5
t-67.5 82.5t-101 29q-62 0 -114 -29t-83 -82.5t-31 -128.5zM116 230q0 53 21.5 90t57.5 56t78 19q26 0 52 -11t47.5 -32t34.5 -51.5t13 -70.5q0 -53 -22 -90t-56 -56t-69 -19q-42 0 -78 19t-57.5 56t-21.5 90zM263 625l110 -95l50 40l-160 140l-160 -140l50 -40z" />
    <glyph glyph-name="Gbreve" unicode="&#x11e;" horiz-adv-x="775" 
d="M405 275h233q-9 -41 -28.5 -77t-49.5 -64t-71.5 -43.5t-93.5 -15.5q-74 0 -134 35t-95.5 97t-35.5 143q0 82 35.5 143.5t95.5 96.5t134 35q80 0 139 -31.5t92 -87.5l60 55q-30 49 -73.5 82t-98 50t-119.5 17q-76 0 -141 -26.5t-113 -75t-74.5 -114.5t-26.5 -144
t26.5 -144t74.5 -114.5t113 -75t141 -26.5q80 0 142.5 29.5t105.5 80.5t65 116.5t22 138.5h-325v-80zM237 910q0 -34 17.5 -66.5t53 -53t87.5 -20.5q53 0 88 20.5t52.5 53t17.5 66.5h-71q0 -13 -7 -30.5t-26 -31t-54 -13.5t-54 13.5t-26 31t-7 30.5h-71z" />
    <glyph glyph-name="gbreve" unicode="&#x11f;" 
d="M44 -30q0 -59 29 -104.5t80.5 -70.5t118.5 -25q58 0 110 27t85 80.5t33 132.5v450h-80v-450q0 -58 -22.5 -94.5t-56.5 -53.5t-69 -17q-45 0 -78 17.5t-51 46t-18 61.5h-81zM35 230q0 -74 31 -128t83 -83t114 -29q58 0 101 29t67.5 83t24.5 128q0 75 -24.5 128.5
t-67.5 82.5t-101 29q-62 0 -114 -29t-83 -82.5t-31 -128.5zM116 230q0 53 21.5 90t57.5 56t78 19q26 0 52 -11t47.5 -32t34.5 -51.5t13 -70.5q0 -53 -22 -90t-56 -56t-69 -19q-42 0 -78 19t-57.5 56t-21.5 90zM105 670q0 -34 17.5 -66.5t53 -53t87.5 -20.5q53 0 88 20.5
t52.5 53t17.5 66.5h-71q0 -13 -7 -30.5t-26 -31t-54 -13.5t-54 13.5t-26 31t-7 30.5h-71z" />
    <glyph glyph-name="Gdotaccent" unicode="&#x120;" horiz-adv-x="775" 
d="M405 275h233q-9 -41 -28.5 -77t-49.5 -64t-71.5 -43.5t-93.5 -15.5q-74 0 -134 35t-95.5 97t-35.5 143q0 82 35.5 143.5t95.5 96.5t134 35q80 0 139 -31.5t92 -87.5l60 55q-30 49 -73.5 82t-98 50t-119.5 17q-76 0 -141 -26.5t-113 -75t-74.5 -114.5t-26.5 -144
t26.5 -144t74.5 -114.5t113 -75t141 -26.5q80 0 142.5 29.5t105.5 80.5t65 116.5t22 138.5h-325v-80zM340 825q0 -22 16.5 -38.5t38.5 -16.5q23 0 39 16.5t16 38.5q0 23 -16 39t-39 16q-22 0 -38.5 -16t-16.5 -39z" />
    <glyph glyph-name="gdotaccent" unicode="&#x121;" 
d="M44 -30q0 -59 29 -104.5t80.5 -70.5t118.5 -25q58 0 110 27t85 80.5t33 132.5v450h-80v-450q0 -58 -22.5 -94.5t-56.5 -53.5t-69 -17q-45 0 -78 17.5t-51 46t-18 61.5h-81zM35 230q0 -74 31 -128t83 -83t114 -29q58 0 101 29t67.5 83t24.5 128q0 75 -24.5 128.5
t-67.5 82.5t-101 29q-62 0 -114 -29t-83 -82.5t-31 -128.5zM116 230q0 53 21.5 90t57.5 56t78 19q26 0 52 -11t47.5 -32t34.5 -51.5t13 -70.5q0 -53 -22 -90t-56 -56t-69 -19q-42 0 -78 19t-57.5 56t-21.5 90zM228 625q0 -22 16.5 -38.5t38.5 -16.5q23 0 39 16.5t16 38.5
q0 23 -16 39t-39 16q-22 0 -38.5 -16t-16.5 -39z" />
    <glyph glyph-name="uni0122" unicode="&#x122;" horiz-adv-x="775" 
d="M405 275h233q-9 -41 -28.5 -77t-49.5 -64t-71.5 -43.5t-93.5 -15.5q-74 0 -134 35t-95.5 97t-35.5 143q0 82 35.5 143.5t95.5 96.5t134 35q80 0 139 -31.5t92 -87.5l60 55q-30 49 -73.5 82t-98 50t-119.5 17q-76 0 -141 -26.5t-113 -75t-74.5 -114.5t-26.5 -144
t26.5 -144t74.5 -114.5t113 -75t141 -26.5q80 0 142.5 29.5t105.5 80.5t65 116.5t22 138.5h-325v-80zM399 -70l-88 -259l58 -21l110 250z" />
    <glyph glyph-name="uni0123" unicode="&#x123;" 
d="M44 -30q0 -59 29 -104.5t80.5 -70.5t118.5 -25q58 0 110 27t85 80.5t33 132.5v450h-80v-450q0 -58 -22.5 -94.5t-56.5 -53.5t-69 -17q-45 0 -78 17.5t-51 46t-18 61.5h-81zM35 230q0 -74 31 -128t83 -83t114 -29q58 0 101 29t67.5 83t24.5 128q0 75 -24.5 128.5
t-67.5 82.5t-101 29q-62 0 -114 -29t-83 -82.5t-31 -128.5zM116 230q0 53 21.5 90t57.5 56t78 19q26 0 52 -11t47.5 -32t34.5 -51.5t13 -70.5q0 -53 -22 -90t-56 -56t-69 -19q-42 0 -78 19t-57.5 56t-21.5 90zM282 546l127 242l-54 30l-147 -230z" />
    <glyph glyph-name="Hcircumflex" unicode="&#x124;" horiz-adv-x="715" 
d="M127 340h480v80h-480v-80zM550 700v-700h85v700h-85zM80 700v-700h85v700h-85zM358 865l110 -95l50 40l-160 140l-160 -140l50 -40z" />
    <glyph glyph-name="hcircumflex" unicode="&#x125;" horiz-adv-x="525" 
d="M155 780h-80v-780h80v780zM370 280v-280h80v290q0 60 -19.5 100t-55 60t-83.5 20t-87 -25t-62.5 -67.5t-23.5 -97.5h36q0 33 14.5 59t41 41t61.5 15q49 0 73.5 -29t24.5 -86zM122 935l110 -95l50 40l-160 140l-160 -140l50 -40z" />
    <glyph glyph-name="Hbar" unicode="&#x126;" horiz-adv-x="715" 
d="M127 340h480v80h-480v-80zM550 700v-700h85v700h-85zM80 700v-700h85v700h-85zM5 540h705v75h-705v-75z" />
    <glyph glyph-name="hbar" unicode="&#x127;" horiz-adv-x="525" 
d="M155 780h-80v-780h80v780zM370 280v-280h80v290q0 60 -19.5 100t-55 60t-83.5 20t-84.5 -25t-57.5 -67.5t-21 -97.5h26q0 33 14.5 59t41 41t61.5 15q49 0 73.5 -29t24.5 -86zM5 625h312v75h-312v-75z" />
    <glyph glyph-name="Itilde" unicode="&#x128;" horiz-adv-x="245" 
d="M80 700v-700h85v700h-85zM-42 807l53 -37q0 8 4 20t15 21.5t31 9.5q23 0 39.5 -11.5t35.5 -23.5t46 -12q25 0 46 10.5t36.5 27.5t23.5 35l-46 43q-15 -24 -28.5 -36t-27.5 -12q-20 0 -33 7t-24.5 16.5t-27 16.5t-39.5 7q-22 0 -44.5 -10.5t-38.5 -28.5t-21 -43z" />
    <glyph glyph-name="itilde" unicode="&#x129;" horiz-adv-x="260" 
d="M90 460v-460h80v460h-80zM-35 567l53 -37q0 8 4 20t15 21.5t31 9.5q23 0 39.5 -11.5t35.5 -23.5t46 -12q25 0 46 10.5t36.5 27.5t23.5 35l-46 43q-15 -24 -28.5 -36t-27.5 -12q-20 0 -33 7t-24.5 16.5t-27 16.5t-39.5 7q-22 0 -44.5 -10.5t-38.5 -28.5t-21 -43z" />
    <glyph glyph-name="Imacron" unicode="&#x12a;" horiz-adv-x="245" 
d="M80 700v-700h85v700h-85zM-52 770h350v75h-350v-75z" />
    <glyph glyph-name="imacron" unicode="&#x12b;" horiz-adv-x="260" 
d="M90 460v-460h80v460h-80zM-45 530h350v75h-350v-75z" />
    <glyph glyph-name="Ibreve" unicode="&#x12c;" horiz-adv-x="245" 
d="M80 700v-700h85v700h-85zM-35 910q0 -34 17.5 -66.5t53 -53t87.5 -20.5q53 0 88 20.5t52.5 53t17.5 66.5h-71q0 -13 -7 -30.5t-26 -31t-54 -13.5t-54 13.5t-26 31t-7 30.5h-71z" />
    <glyph glyph-name="ibreve" unicode="&#x12d;" horiz-adv-x="260" 
d="M90 460v-460h80v460h-80zM-28 670q0 -34 17.5 -66.5t53 -53t87.5 -20.5q53 0 88 20.5t52.5 53t17.5 66.5h-71q0 -13 -7 -30.5t-26 -31t-54 -13.5t-54 13.5t-26 31t-7 30.5h-71z" />
    <glyph glyph-name="Iogonek" unicode="&#x12e;" horiz-adv-x="245" 
d="M80 700v-700h85v700h-85zM170 -130q-10 -10 -20 -15t-30 -5q-22 0 -35 11.5t-13 38.5q0 19 12.5 37.5t33.5 35t47 27.5l-41 25q-35 -18 -65 -40.5t-48.5 -48.5t-18.5 -56q0 -29 13.5 -52t40.5 -35.5t69 -12.5q32 0 54.5 12.5t33.5 27.5z" />
    <glyph glyph-name="iogonek" unicode="&#x12f;" horiz-adv-x="260" 
d="M75 650q0 -22 16.5 -38.5t38.5 -16.5q23 0 39 16.5t16 38.5q0 23 -16 39t-39 16q-22 0 -38.5 -16t-16.5 -39zM90 460v-460h80v460h-80zM175 -130q-10 -10 -20 -15t-30 -5q-22 0 -35 11.5t-13 38.5q0 19 12.5 37.5t33.5 35t47 27.5l-41 25q-35 -18 -65 -40.5t-48.5 -48.5
t-18.5 -56q0 -29 13.5 -52t40.5 -35.5t69 -12.5q32 0 54.5 12.5t33.5 27.5z" />
    <glyph glyph-name="Idotaccent" unicode="&#x130;" horiz-adv-x="245" 
d="M80 700v-700h85v700h-85zM67 825q0 -22 16.5 -38.5t38.5 -16.5q23 0 39 16.5t16 38.5q0 23 -16 39t-39 16q-22 0 -38.5 -16t-16.5 -39z" />
    <glyph glyph-name="dotlessi" unicode="&#x131;" horiz-adv-x="260" 
d="M90 460v-460h80v460h-80z" />
    <glyph glyph-name="IJ" unicode="&#x132;" horiz-adv-x="490" 
d="M183 -104l-44 -66q8 -10 25.5 -21.5t42 -20t50.5 -8.5q35 0 63.5 9.5t48.5 29.5t30.5 50t10.5 71v760h-80v-750q0 -49 -22.5 -69.5t-45.5 -20.5q-27 0 -47.5 9.5t-31.5 26.5zM80 700v-700h85v700h-85z" />
    <glyph glyph-name="ij" unicode="&#x133;" horiz-adv-x="510" 
d="M325 650q0 -22 16.5 -38.5t38.5 -16.5q23 0 39 16.5t16 38.5q0 23 -16 39t-39 16q-22 0 -38.5 -16t-16.5 -39zM243 -114l-44 -66q8 -10 20 -19t29.5 -15t38.5 -6q42 0 71.5 17.5t45.5 53t16 89.5v520h-80v-510q0 -33 -5.5 -52.5t-16.5 -28.5t-26 -9q-12 0 -25 4.5
t-24 21.5zM75 650q0 -22 16.5 -38.5t38.5 -16.5q23 0 39 16.5t16 38.5q0 23 -16 39t-39 16q-22 0 -38.5 -16t-16.5 -39zM90 460v-460h80v460h-80z" />
    <glyph glyph-name="Jcircumflex" unicode="&#x134;" horiz-adv-x="240" 
d="M-67 -104l-44 -66q8 -10 25.5 -21.5t42 -20t50.5 -8.5q35 0 63.5 9.5t48.5 29.5t30.5 50t10.5 71v760h-80v-750q0 -49 -22.5 -69.5t-45.5 -20.5q-27 0 -47.5 9.5t-31.5 26.5zM120 865l110 -95l50 40l-160 140l-160 -140l50 -40z" />
    <glyph glyph-name="jcircumflex" unicode="&#x135;" horiz-adv-x="250" 
d="M-17 -114l-44 -66q8 -10 20 -19t29.5 -15t38.5 -6q42 0 72 17.5t45.5 53t15.5 89.5v520h-80v-510q0 -33 -5.5 -52.5t-16.5 -28.5t-26 -9q-12 0 -25 4.5t-24 21.5zM120 625l110 -95l50 40l-160 140l-160 -140l50 -40z" />
    <glyph glyph-name="uni0136" unicode="&#x136;" horiz-adv-x="565" 
d="M80 700v-700h85v700h-85zM440 700l-301 -330l316 -370h105l-318 372l303 328h-105zM324 -60l-88 -259l58 -21l110 250z" />
    <glyph glyph-name="uni0137" unicode="&#x137;" horiz-adv-x="440" 
d="M70 780v-780h80v780h-80zM320 460l-200 -190l220 -270h100l-220 270l200 190h-100zM259 -60l-88 -259l58 -21l110 250z" />
    <glyph glyph-name="kgreenlandic" unicode="&#x138;" horiz-adv-x="440" 
d="M70 460v-460h80v460h-80zM320 460l-200 -190l220 -270h100l-220 270l200 190h-100z" />
    <glyph glyph-name="Lacute" unicode="&#x139;" horiz-adv-x="450" 
d="M80 700v-700h360v80h-275v620h-85zM390 920l-75 40l-150 -160l45 -30z" />
    <glyph glyph-name="lacute" unicode="&#x13a;" horiz-adv-x="230" 
d="M75 780v-780h80v780h-80zM245 990l-75 40l-150 -160l45 -30z" />
    <glyph glyph-name="uni013B" unicode="&#x13b;" horiz-adv-x="450" 
d="M80 700v-700h360v80h-275v620h-85zM264 -60l-88 -259l58 -21l110 250z" />
    <glyph glyph-name="uni013C" unicode="&#x13c;" horiz-adv-x="230" 
d="M75 780v-780h80v780h-80zM119 -60l-88 -259l58 -21l110 250z" />
    <glyph glyph-name="Lcaron" unicode="&#x13d;" horiz-adv-x="450" 
d="M80 700v-700h360v80h-275v620h-85zM328 710l-88 -259l58 -21l110 250z" />
    <glyph glyph-name="lcaron" unicode="&#x13e;" horiz-adv-x="230" 
d="M75 780v-780h80v780h-80zM293 780l-88 -259l58 -21l110 250z" />
    <glyph glyph-name="Ldot" unicode="&#x13f;" horiz-adv-x="450" 
d="M80 700v-700h360v80h-275v620h-85zM255 415q0 -22 16.5 -38.5t38.5 -16.5q23 0 39 16.5t16 38.5q0 23 -16 39t-39 16q-22 0 -38.5 -16t-16.5 -39z" />
    <glyph glyph-name="ldot" unicode="&#x140;" horiz-adv-x="370" 
d="M75 780v-780h80v780h-80zM215 415q0 -22 16.5 -38.5t38.5 -16.5q23 0 39 16.5t16 38.5q0 23 -16 39t-39 16q-22 0 -38.5 -16t-16.5 -39z" />
    <glyph glyph-name="Lslash" unicode="&#x141;" horiz-adv-x="450" 
d="M5 340l270 170l-20 55l-270 -170zM80 700v-700h360v80h-275v620h-85z" />
    <glyph glyph-name="lslash" unicode="&#x142;" horiz-adv-x="230" 
d="M5 340l250 150l-20 55l-250 -150zM75 780v-780h80v780h-80z" />
    <glyph glyph-name="Nacute" unicode="&#x143;" horiz-adv-x="775" 
d="M610 700v-521l-530 556v-735h85v521l530 -556v735h-85zM560 905l-75 40l-150 -160l45 -30z" />
    <glyph glyph-name="nacute" unicode="&#x144;" horiz-adv-x="525" 
d="M155 460h-80v-460h80v460zM370 280v-280h80v290q0 89 -43.5 134.5t-114.5 45.5q-48 0 -84.5 -25t-57.5 -67.5t-21 -97.5h26q0 33 14.5 59t41 41t61.5 15q49 0 73.5 -29t24.5 -86zM402 680l-74 40l-150 -160l44 -30z" />
    <glyph glyph-name="uni0145" unicode="&#x145;" horiz-adv-x="775" 
d="M399 -35l-88 -259l58 -21l110 250zM610 700v-521l-530 556v-735h85v521l530 -556v735h-85z" />
    <glyph glyph-name="uni0146" unicode="&#x146;" horiz-adv-x="525" 
d="M155 460h-80v-460h80v460zM370 280v-280h80v290q0 89 -43.5 134.5t-114.5 45.5q-48 0 -87 -25t-62.5 -67.5t-23.5 -97.5h36q0 33 14.5 59t41 41t61.5 15q49 0 73.5 -29t24.5 -86zM266 -60l-88 -259l58 -21l110 250z" />
    <glyph glyph-name="Ncaron" unicode="&#x147;" horiz-adv-x="775" 
d="M400 880l-110 95l-50 -40l160 -140l160 140l-50 40zM610 700v-521l-530 556v-735h85v521l530 -556v735h-85z" />
    <glyph glyph-name="ncaron" unicode="&#x148;" horiz-adv-x="525" 
d="M155 460h-80v-460h80v460zM370 280v-280h80v290q0 89 -43.5 134.5t-114.5 45.5q-48 0 -87 -25t-62.5 -67.5t-23.5 -97.5h36q0 33 14.5 59t41 41t61.5 15q49 0 73.5 -29t24.5 -86zM262 615l-110 95l-50 -40l160 -140l160 140l-50 40z" />
    <glyph glyph-name="napostrophe" unicode="&#x149;" horiz-adv-x="635" 
d="M265 460h-80v-460h80v460zM480 280v-280h80v290q0 89 -43.5 134.5t-114.5 45.5q-47 0 -86.5 -25t-63 -67.5t-23.5 -97.5h36q0 33 14.5 59t41 41t61.5 15q49 0 73.5 -29t24.5 -86zM130 700l-60 -230h55l100 230h-95z" />
    <glyph glyph-name="Eng" unicode="&#x14a;" horiz-adv-x="775" 
d="M562 -220q42 0 72 19t45.5 55t15.5 86v760h-85v-521l-530 556v-735h85v521l450 -472v-99q0 -32 -5 -52t-15.5 -29t-27.5 -9q-16 0 -28.5 7t-20.5 19l-44 -66q15 -20 36.5 -30t51.5 -10z" />
    <glyph glyph-name="eng" unicode="&#x14b;" horiz-adv-x="525" 
d="M317 -220q66 0 99.5 40.5t33.5 119.5v350q0 86 -41.5 133t-116.5 47q-43 0 -78.5 -21.5t-58.5 -60.5v72h-80v-460h80v280q0 34 15 60t41.5 40.5t60.5 14.5q49 0 73.5 -29t24.5 -86v-330q0 -46 -12 -68t-36 -22q-33 0 -49 26l-44 -66q14 -19 37.5 -29.5t50.5 -10.5z" />
    <glyph glyph-name="Omacron" unicode="&#x14c;" horiz-adv-x="790" 
d="M130 350q0 79 34.5 141t94.5 98t136 36q77 0 136.5 -36t94 -98t34.5 -141t-34.5 -141t-94 -98t-136.5 -36q-76 0 -136 36t-94.5 98t-34.5 141zM40 350q0 -76 26.5 -142t74.5 -114.5t113 -76t141 -27.5q77 0 141.5 27.5t112.5 76t74.5 114.5t26.5 142q0 77 -26.5 142.5
t-74.5 114t-112.5 76t-141.5 27.5q-76 0 -141 -27.5t-113 -76t-74.5 -114t-26.5 -142.5zM220 770h350v75h-350v-75z" />
    <glyph glyph-name="omacron" unicode="&#x14d;" horiz-adv-x="546" 
d="M35 230q0 -69 31.5 -123.5t85.5 -85.5t121 -31q68 0 121.5 31t85 85.5t31.5 123.5q0 70 -31.5 124t-85 85t-121.5 31q-67 0 -121 -31t-85.5 -85t-31.5 -124zM116 230q0 48 20.5 85.5t56 58.5t80.5 21t80.5 -21t56 -58.5t20.5 -85.5t-20.5 -85t-56 -58.5t-80.5 -21.5
t-80.5 21.5t-56 58.5t-20.5 85zM98 530h350v75h-350v-75z" />
    <glyph glyph-name="Obreve" unicode="&#x14e;" horiz-adv-x="790" 
d="M130 350q0 79 34.5 141t94.5 98t136 36q77 0 136.5 -36t94 -98t34.5 -141t-34.5 -141t-94 -98t-136.5 -36q-76 0 -136 36t-94.5 98t-34.5 141zM40 350q0 -76 26.5 -142t74.5 -114.5t113 -76t141 -27.5q77 0 141.5 27.5t112.5 76t74.5 114.5t26.5 142q0 77 -26.5 142.5
t-74.5 114t-112.5 76t-141.5 27.5q-76 0 -141 -27.5t-113 -76t-74.5 -114t-26.5 -142.5zM237 910q0 -34 17.5 -66.5t53 -53t87.5 -20.5q53 0 88 20.5t52.5 53t17.5 66.5h-71q0 -13 -7 -30.5t-26 -31t-54 -13.5t-54 13.5t-26 31t-7 30.5h-71z" />
    <glyph glyph-name="obreve" unicode="&#x14f;" horiz-adv-x="546" 
d="M35 230q0 -69 31.5 -123.5t85.5 -85.5t121 -31q68 0 121.5 31t85 85.5t31.5 123.5q0 70 -31.5 124t-85 85t-121.5 31q-67 0 -121 -31t-85.5 -85t-31.5 -124zM116 230q0 48 20.5 85.5t56 58.5t80.5 21t80.5 -21t56 -58.5t20.5 -85.5t-20.5 -85t-56 -58.5t-80.5 -21.5
t-80.5 21.5t-56 58.5t-20.5 85zM115 670q0 -34 17.5 -66.5t53 -53t87.5 -20.5q53 0 88 20.5t52.5 53t17.5 66.5h-71q0 -13 -7 -30.5t-26 -31t-54 -13.5t-54 13.5t-26 31t-7 30.5h-71z" />
    <glyph glyph-name="Ohungarumlaut" unicode="&#x150;" horiz-adv-x="790" 
d="M313 770l134 191l-82 20l-104 -194zM477 770l136 191l-84 20l-103 -194zM130 350q0 79 34.5 141t94.5 98t136 36q77 0 136.5 -36t94 -98t34.5 -141t-34.5 -141t-94 -98t-136.5 -36q-76 0 -136 36t-94.5 98t-34.5 141zM40 350q0 -76 26.5 -142t74.5 -114.5t113 -76
t141 -27.5q77 0 141.5 27.5t112.5 76t74.5 114.5t26.5 142q0 77 -26.5 142.5t-74.5 114t-112.5 76t-141.5 27.5q-76 0 -141 -27.5t-113 -76t-74.5 -114t-26.5 -142.5z" />
    <glyph glyph-name="ohungarumlaut" unicode="&#x151;" horiz-adv-x="546" 
d="M191 530l134 191l-82 20l-104 -194zM355 530l136 191l-84 20l-103 -194zM35 230q0 -69 31.5 -123.5t85.5 -85.5t121 -31q68 0 121.5 31t85 85.5t31.5 123.5q0 70 -31.5 124t-85 85t-121.5 31q-67 0 -121 -31t-85.5 -85t-31.5 -124zM116 230q0 48 20.5 85.5t56 58.5
t80.5 21t80.5 -21t56 -58.5t20.5 -85.5t-20.5 -85t-56 -58.5t-80.5 -21.5t-80.5 21.5t-56 58.5t-20.5 85z" />
    <glyph glyph-name="OE" unicode="&#x152;" horiz-adv-x="985" 
d="M562 340h333v80h-333v-80zM515 670v-640h85v640h-85zM916 80h-344h-24h-158q-59 0 -107.5 19t-84 54.5t-54.5 85.5t-19 111t19 111t54 85.5t84 54.5t108 19h161h17h347v80h-525q-76 0 -140.5 -25t-111 -71.5t-72.5 -111t-26 -142.5t26 -142.5t73 -111t111 -71.5t140 -25
h526v80z" />
    <glyph glyph-name="oe" unicode="&#x153;" horiz-adv-x="900" 
d="M780 250v-20l84 -20q1 6 1 12v12q0 73 -29 125.5t-76 81.5t-102 29q-59 0 -106.5 -24t-77.5 -67t-40 -100q-2 -12 -3 -24t-1 -25q0 -69 28.5 -123.5t78 -85.5t111.5 -31q50 0 88.5 14.5t68 41t52.5 61.5l-65 41q-23 -37 -58.5 -60t-85.5 -23q-45 0 -78 19t-51 56t-18 90
l2 30q0 43 19.5 74.5t52.5 48.5t73 17q45 0 74 -19.5t43.5 -53.5t14.5 -77zM481 210h383l-20 68h-363v-68zM35 230q0 -74 31 -128t83 -83t114 -29q63 0 108.5 29t70 83t24.5 128q0 75 -24.5 128.5t-70 82.5t-108.5 29q-62 0 -114 -29t-83 -82.5t-31 -128.5zM116 230
q0 53 21.5 90t57.5 56t78 19q35 0 66.5 -19t51 -56t19.5 -90t-19.5 -90t-51 -56t-66.5 -19q-42 0 -78 19t-57.5 56t-21.5 90z" />
    <glyph glyph-name="Racute" unicode="&#x154;" horiz-adv-x="560" 
d="M205 345l240 -345h105l-250 345h-95zM80 700v-700h85v700h-85zM127 625h143q45 0 79.5 -16t54 -46t19.5 -73t-19.5 -73t-54 -46t-79.5 -16h-143v-75h143q68 0 121.5 25.5t85 73t31.5 111.5q0 65 -31.5 112t-85 72.5t-121.5 25.5h-143v-75zM405 920l-75 40l-150 -160
l45 -30z" />
    <glyph glyph-name="racute" unicode="&#x155;" horiz-adv-x="343" 
d="M155 460h-80v-460h80v460zM294 372l44 66q-18 19 -39.5 25.5t-46.5 6.5q-32 0 -63 -25t-50.5 -67.5t-19.5 -97.5h36q0 33 6.5 59t23.5 41t47 15q20 0 33 -5.5t29 -17.5zM336 680l-74 40l-150 -160l44 -30z" />
    <glyph glyph-name="uni0156" unicode="&#x156;" horiz-adv-x="560" 
d="M205 345l240 -345h105l-250 345h-95zM80 700v-700h85v700h-85zM127 625h143q45 0 79.5 -16t54 -46t19.5 -73t-19.5 -73t-54 -46t-79.5 -16h-143v-75h143q68 0 121.5 25.5t85 73t31.5 111.5q0 65 -31.5 112t-85 72.5t-121.5 25.5h-143v-75zM319 -60l-88 -259l58 -21
l110 250z" />
    <glyph glyph-name="uni0157" unicode="&#x157;" horiz-adv-x="343" 
d="M155 460h-80v-460h80v460zM294 372l44 66q-18 19 -39.5 25.5t-46.5 6.5q-32 0 -63 -25t-50.5 -67.5t-19.5 -97.5h36q0 33 6.5 59t23.5 41t47 15q20 0 33 -5.5t29 -17.5zM119 -60l-88 -259l58 -21l110 250z" />
    <glyph glyph-name="Rcaron" unicode="&#x158;" horiz-adv-x="560" 
d="M205 345l240 -345h105l-250 345h-95zM80 700v-700h85v700h-85zM127 625h143q45 0 79.5 -16t54 -46t19.5 -73t-19.5 -73t-54 -46t-79.5 -16h-143v-75h143q68 0 121.5 25.5t85 73t31.5 111.5q0 65 -31.5 112t-85 72.5t-121.5 25.5h-143v-75zM255 855l-110 95l-50 -40
l160 -140l160 140l-50 40z" />
    <glyph glyph-name="rcaron" unicode="&#x159;" horiz-adv-x="343" 
d="M155 460h-80v-460h80v460zM294 372l44 66q-18 19 -39.5 25.5t-46.5 6.5q-32 0 -63 -25t-50.5 -67.5t-19.5 -97.5h36q0 33 6.5 59t23.5 41t47 15q20 0 33 -5.5t29 -17.5zM206 615l-110 95l-50 -40l160 -140l160 140l-50 40z" />
    <glyph glyph-name="Sacute" unicode="&#x15a;" horiz-adv-x="548" 
d="M112 226l-72 -43q22 -58 58.5 -101t85.5 -67.5t106 -24.5q70 0 117 25t71.5 70.5t24.5 104.5q0 48 -17 82.5t-44 58t-58 39.5t-58 26q-42 16 -79 34t-60 41.5t-23 57.5q0 31 14 53t40 34.5t61 12.5q39 0 66 -16.5t46 -43t34 -55.5l69 46q-14 36 -43.5 70.5t-72.5 57
t-100 22.5t-103 -21.5t-73 -61t-27 -92.5q0 -45 17.5 -78t44.5 -56t57.5 -38.5t56.5 -24.5q40 -14 77.5 -33t62 -48t24.5 -74q0 -35 -13.5 -60.5t-40 -39t-66.5 -13.5q-33 0 -59.5 11t-48.5 31t-40.5 49t-34.5 65zM458 920l-75 40l-150 -160l45 -30z" />
    <glyph glyph-name="sacute" unicode="&#x15b;" horiz-adv-x="403" 
d="M91 161l-66 -38q7 -37 33.5 -67.5t65.5 -48t81 -17.5q74 0 121 33t47 107q0 34 -18 59.5t-47 44.5t-62 32q-25 11 -51 22t-43.5 24.5t-17.5 31.5q0 27 20 38.5t50 11.5q19 0 38 -7.5t35.5 -19.5t27.5 -28l64 41q-9 26 -34.5 46t-60 32t-71.5 12t-71 -14.5t-56 -41.5
t-22 -65t20 -63.5t50.5 -41.5t61.5 -29q27 -10 50.5 -22t38.5 -28.5t15 -41.5q0 -30 -21 -44t-59 -14q-28 0 -53 12.5t-42.5 34t-23.5 49.5zM383 680l-75 40l-150 -160l45 -30z" />
    <glyph glyph-name="Scircumflex" unicode="&#x15c;" horiz-adv-x="548" 
d="M112 226l-72 -43q22 -58 58.5 -101t85.5 -67.5t106 -24.5q70 0 117 25t71.5 70.5t24.5 104.5q0 48 -17 82.5t-44 58t-58 39.5t-58 26q-42 16 -79 34t-60 41.5t-23 57.5q0 31 14 53t40 34.5t61 12.5q39 0 66 -16.5t46 -43t34 -55.5l69 46q-14 36 -43.5 70.5t-72.5 57
t-100 22.5t-103 -21.5t-73 -61t-27 -92.5q0 -45 17.5 -78t44.5 -56t57.5 -38.5t56.5 -24.5q40 -14 77.5 -33t62 -48t24.5 -74q0 -35 -13.5 -60.5t-40 -39t-66.5 -13.5q-33 0 -59.5 11t-48.5 31t-40.5 49t-34.5 65zM278 865l110 -95l50 40l-160 140l-160 -140l50 -40z" />
    <glyph glyph-name="scircumflex" unicode="&#x15d;" horiz-adv-x="403" 
d="M91 161l-66 -38q7 -37 33.5 -67.5t65.5 -48t81 -17.5q74 0 121 33t47 107q0 34 -18 59.5t-47 44.5t-62 32q-25 11 -51 22t-43.5 24.5t-17.5 31.5q0 27 20 38.5t50 11.5q19 0 38 -7.5t35.5 -19.5t27.5 -28l64 41q-9 26 -34.5 46t-60 32t-71.5 12t-71 -14.5t-56 -41.5
t-22 -65t20 -63.5t50.5 -41.5t61.5 -29q27 -10 50.5 -22t38.5 -28.5t15 -41.5q0 -30 -21 -44t-59 -14q-28 0 -53 12.5t-42.5 34t-23.5 49.5zM203 625l110 -95l50 40l-160 140l-160 -140l50 -40z" />
    <glyph glyph-name="Scedilla" unicode="&#x15e;" horiz-adv-x="548" 
d="M112 226l-72 -43q22 -58 58.5 -101t85.5 -67.5t106 -24.5q65 0 112.5 25t74 70.5t26.5 104.5q0 48 -17 82.5t-44 58t-58 39.5t-58 26q-42 16 -79 34t-60 41.5t-23 57.5q0 31 11.5 53t35 34.5t58.5 12.5q39 0 68.5 -16.5t51 -43t36.5 -55.5l69 46q-18 41 -47 75
t-70.5 54.5t-98.5 20.5q-62 0 -107.5 -23t-70.5 -63.5t-25 -93.5q0 -48 17.5 -81t44.5 -54t57.5 -34.5t56.5 -22.5q40 -14 77.5 -33t62 -48t24.5 -74q0 -35 -13.5 -60.5t-40 -39t-66.5 -13.5q-33 0 -59.5 11t-48.5 31t-40.5 49t-34.5 65zM300 59l-86 -168q16 11 33.5 14.5
t24.5 3.5q26 0 38 -9t12 -27t-12 -29t-38 -11q-19 0 -30.5 6t-25.5 18l-34 -40q21 -21 41.5 -29.5t48.5 -8.5t52 11t39 32t15 51q0 25 -11 41t-27.5 24.5t-33.5 8.5h-4.5h-4.5l63 112h-60z" />
    <glyph glyph-name="scedilla" unicode="&#x15f;" horiz-adv-x="403" 
d="M88 163l-63 -39q17 -37 45.5 -67.5t65.5 -48t79 -17.5q67 0 112.5 33t45.5 107q0 39 -18 65t-47 44t-62 31q-25 11 -51.5 20.5t-44.5 23t-18 35.5q0 27 21 37.5t51 10.5q28 0 56.5 -17.5t44.5 -40.5l64 41q-21 38 -66 64t-100 26q-37 0 -71 -13t-56 -40.5t-22 -70.5
t20 -68t50.5 -39.5t61.5 -27.5q27 -10 50.5 -22t38.5 -28t15 -40q0 -29 -21.5 -42.5t-53.5 -13.5q-22 0 -45 12.5t-44.5 34.5t-37.5 50zM224 60l-84 -168q16 11 32.5 14.5t23.5 3.5q26 0 38 -9t12 -27t-12 -29t-38 -11q-19 0 -30.5 6t-25.5 18l-32 -40q21 -21 40.5 -29.5
t47.5 -8.5t52.5 11t40 32t15.5 51q0 25 -11.5 41t-28.5 24.5t-34 8.5h-4h-4l64 112h-62z" />
    <glyph glyph-name="Scaron" unicode="&#x160;" horiz-adv-x="548" 
d="M112 226l-72 -43q22 -58 58.5 -101t85.5 -67.5t106 -24.5q70 0 117 25t71.5 70.5t24.5 104.5q0 48 -17 82.5t-44 58t-58 39.5t-58 26q-42 16 -79 34t-60 41.5t-23 57.5q0 31 14 53t40 34.5t61 12.5q39 0 66 -16.5t46 -43t34 -55.5l69 46q-14 36 -43.5 70.5t-72.5 57
t-100 22.5t-103 -21.5t-73 -61t-27 -92.5q0 -45 17.5 -78t44.5 -56t57.5 -38.5t56.5 -24.5q40 -14 77.5 -33t62 -48t24.5 -74q0 -35 -13.5 -60.5t-40 -39t-66.5 -13.5q-33 0 -59.5 11t-48.5 31t-40.5 49t-34.5 65zM278 855l-110 95l-50 -40l160 -140l160 140l-50 40z" />
    <glyph glyph-name="scaron" unicode="&#x161;" horiz-adv-x="403" 
d="M91 161l-66 -38q7 -37 33.5 -67.5t65.5 -48t81 -17.5q74 0 121 33t47 107q0 34 -18 59.5t-47 44.5t-62 32q-25 11 -51 22t-43.5 24.5t-17.5 31.5q0 27 20 38.5t50 11.5q19 0 38 -7.5t35.5 -19.5t27.5 -28l64 41q-9 26 -34.5 46t-60 32t-71.5 12t-71 -14.5t-56 -41.5
t-22 -65t20 -63.5t50.5 -41.5t61.5 -29q27 -10 50.5 -22t38.5 -28.5t15 -41.5q0 -30 -21 -44t-59 -14q-28 0 -53 12.5t-42.5 34t-23.5 49.5zM203 615l-110 95l-50 -40l160 -140l160 140l-50 40z" />
    <glyph glyph-name="uni0162" unicode="&#x162;" horiz-adv-x="465" 
d="M202 9l-85 -168q16 11 33 14.5t24 3.5q26 0 38 -9t12 -27t-12 -29t-38 -11q-19 0 -30.5 6t-25.5 18l-33 -40q21 -21 41 -29.5t48 -8.5t52 11t39.5 32t15.5 51q0 25 -11.5 41t-28 24.5t-33.5 8.5h-4.5h-4.5l64 112h-61zM10 620h180v-620h85v620h180v80h-445v-80z" />
    <glyph glyph-name="uni0163" unicode="&#x163;" horiz-adv-x="240" 
d="M90 9l-85 -168q16 11 33 14.5t24 3.5q26 0 38 -9t12 -27t-12 -29t-38 -11q-19 0 -30.5 6t-25.5 18l-33 -40q21 -21 41 -29.5t48 -8.5t52 11t39.5 32t15.5 51q0 25 -11.5 41t-28 24.5t-33.5 8.5h-4.5h-4.5l64 112h-61zM5 460v-75h230v75h-230zM80 620v-620h80v620h-80z
" />
    <glyph glyph-name="Tcaron" unicode="&#x164;" horiz-adv-x="465" 
d="M10 620h180v-620h85v620h180v80h-445v-80zM233 855l-110 95l-50 -40l160 -140l160 140l-50 40z" />
    <glyph glyph-name="tcaron" unicode="&#x165;" horiz-adv-x="350" 
d="M5 460v-75h230v75h-230zM80 620v-620h80v620h-80zM295 810l-88 -259l58 -21l110 250z" />
    <glyph glyph-name="Tbar" unicode="&#x166;" horiz-adv-x="465" 
d="M75 380h315v75h-315v-75zM10 620h180v-620h85v620h180v80h-445v-80z" />
    <glyph glyph-name="tbar" unicode="&#x167;" horiz-adv-x="240" 
d="M20 205h200v75h-200v-75zM5 460v-75h230v75h-230zM80 620v-620h80v620h-80z" />
    <glyph glyph-name="Utilde" unicode="&#x168;" horiz-adv-x="626" 
d="M75 700v-470q0 -52 16.5 -96t48 -76t75.5 -50t98 -18t98 18t75.5 50t48 76t16.5 96v470h-85v-470q0 -72 -39 -116t-114 -44t-114 44t-39 116v470h-85zM148 807l53 -37q0 8 4 20t15 21.5t31 9.5q23 0 39.5 -11.5t35.5 -23.5t46 -12q25 0 46 10.5t36.5 27.5t23.5 35l-46 43
q-15 -24 -28.5 -36t-27.5 -12q-20 0 -33 7t-24.5 16.5t-27 16.5t-39.5 7q-22 0 -44.5 -10.5t-38.5 -28.5t-21 -43z" />
    <glyph glyph-name="utilde" unicode="&#x169;" horiz-adv-x="525" 
d="M370 0h80v460h-80v-460zM155 180v280h-80v-290q0 -89 43.5 -134.5t114.5 -45.5q48 0 84.5 25t57.5 67.5t21 97.5h-26q0 -33 -14.5 -59t-41 -41t-61.5 -15q-49 0 -73.5 29t-24.5 86zM98 567l53 -37q0 8 4 20t15 21.5t31 9.5q23 0 39.5 -11.5t35.5 -23.5t46 -12
q25 0 46 10.5t36.5 27.5t23.5 35l-46 43q-15 -24 -28.5 -36t-27.5 -12q-20 0 -33 7t-24.5 16.5t-27 16.5t-39.5 7q-22 0 -44.5 -10.5t-38.5 -28.5t-21 -43z" />
    <glyph glyph-name="Umacron" unicode="&#x16a;" horiz-adv-x="626" 
d="M75 700v-470q0 -52 16.5 -96t48 -76t75.5 -50t98 -18t98 18t75.5 50t48 76t16.5 96v470h-85v-470q0 -72 -39 -116t-114 -44t-114 44t-39 116v470h-85zM138 770h350v75h-350v-75z" />
    <glyph glyph-name="umacron" unicode="&#x16b;" horiz-adv-x="525" 
d="M370 0h80v460h-80v-460zM155 180v280h-80v-290q0 -89 43.5 -134.5t114.5 -45.5q48 0 84.5 25t57.5 67.5t21 97.5h-26q0 -33 -14.5 -59t-41 -41t-61.5 -15q-49 0 -73.5 29t-24.5 86zM88 530h350v75h-350v-75z" />
    <glyph glyph-name="Ubreve" unicode="&#x16c;" horiz-adv-x="626" 
d="M75 700v-470q0 -52 16.5 -96t48 -76t75.5 -50t98 -18t98 18t75.5 50t48 76t16.5 96v470h-85v-470q0 -72 -39 -116t-114 -44t-114 44t-39 116v470h-85zM155 910q0 -34 17.5 -66.5t53 -53t87.5 -20.5q53 0 88 20.5t52.5 53t17.5 66.5h-71q0 -13 -7 -30.5t-26 -31t-54 -13.5
t-54 13.5t-26 31t-7 30.5h-71z" />
    <glyph glyph-name="ubreve" unicode="&#x16d;" horiz-adv-x="525" 
d="M370 0h80v460h-80v-460zM155 180v280h-80v-290q0 -89 43.5 -134.5t114.5 -45.5q48 0 84.5 25t57.5 67.5t21 97.5h-26q0 -33 -14.5 -59t-41 -41t-61.5 -15q-49 0 -73.5 29t-24.5 86zM105 670q0 -34 17.5 -66.5t53 -53t87.5 -20.5q53 0 88 20.5t52.5 53t17.5 66.5h-71
q0 -13 -7 -30.5t-26 -31t-54 -13.5t-54 13.5t-26 31t-7 30.5h-71z" />
    <glyph glyph-name="Uring" unicode="&#x16e;" horiz-adv-x="626" 
d="M75 700v-470q0 -52 16.5 -96t48 -76t75.5 -50t98 -18t98 18t75.5 50t48 76t16.5 96v470h-85v-470q0 -72 -39 -116t-114 -44t-114 44t-39 116v470h-85zM211 870q0 -45 31.5 -72.5t70.5 -27.5t70.5 27.5t31.5 72.5t-31.5 72.5t-70.5 27.5t-70.5 -27.5t-31.5 -72.5zM262 870
q0 25 16 39t35 14t35 -14t16 -39t-16 -39t-35 -14t-35 14t-16 39z" />
    <glyph glyph-name="uring" unicode="&#x16f;" horiz-adv-x="525" 
d="M370 0h80v460h-80v-460zM155 180v280h-80v-290q0 -89 43.5 -134.5t114.5 -45.5q48 0 84.5 25t57.5 67.5t21 97.5h-26q0 -33 -14.5 -59t-41 -41t-61.5 -15q-49 0 -73.5 29t-24.5 86zM161 630q0 -45 31.5 -72.5t70.5 -27.5t70.5 27.5t31.5 72.5t-31.5 72.5t-70.5 27.5
t-70.5 -27.5t-31.5 -72.5zM212 630q0 25 16 39t35 14t35 -14t16 -39t-16 -39t-35 -14t-35 14t-16 39z" />
    <glyph glyph-name="Uhungarumlaut" unicode="&#x170;" horiz-adv-x="626" 
d="M231 770l134 191l-82 20l-104 -194zM395 770l136 191l-84 20l-103 -194zM75 700v-470q0 -52 16.5 -96t48 -76t75.5 -50t98 -18t98 18t75.5 50t48 76t16.5 96v470h-85v-470q0 -72 -39 -116t-114 -44t-114 44t-39 116v470h-85z" />
    <glyph glyph-name="uhungarumlaut" unicode="&#x171;" horiz-adv-x="525" 
d="M181 530l134 191l-82 20l-104 -194zM345 530l136 191l-84 20l-103 -194zM155 180v280h-80v-290q0 -82 43 -131t115 -49q46 0 80 20.5t57 61.5v-72h80v460h-80v-280q0 -34 -14.5 -60t-41 -40.5t-61.5 -14.5q-48 0 -73 30t-25 85z" />
    <glyph glyph-name="Uogonek" unicode="&#x172;" horiz-adv-x="626" 
d="M357 -134q-10 -10 -20 -15t-30 -5q-22 0 -35 11.5t-13 38.5q0 19 12.5 37.5t33.5 35t47 27.5l-41 25q-35 -18 -65 -40.5t-48.5 -48.5t-18.5 -56q0 -29 13.5 -52t40.5 -35.5t69 -12.5q32 0 54.5 12.5t33.5 27.5zM75 700v-470q0 -52 16.5 -96t48 -76t75.5 -50t98 -18t98 18
t75.5 50t48 76t16.5 96v470h-85v-470q0 -72 -39 -116t-114 -44t-114 44t-39 116v470h-85z" />
    <glyph glyph-name="uogonek" unicode="&#x173;" horiz-adv-x="525" 
d="M455 -130q-10 -10 -20 -15t-30 -5q-22 0 -35 11.5t-13 38.5q0 19 12.5 37.5t33.5 35t47 27.5l-41 25q-35 -18 -65 -40.5t-48.5 -48.5t-18.5 -56q0 -29 13.5 -52t40.5 -35.5t69 -12.5q32 0 54.5 12.5t33.5 27.5zM155 180v280h-80v-290q0 -82 43 -131t115 -49q46 0 80 20.5
t57 61.5v-72h80v460h-80v-280q0 -34 -14.5 -60t-41 -40.5t-61.5 -14.5q-48 0 -73 30t-25 85z" />
    <glyph glyph-name="Wcircumflex" unicode="&#x174;" horiz-adv-x="990" 
d="M700 175l-205 560l-205 -560l-185 525h-95l275 -735l210 544l210 -544l275 735h-95zM495 890l110 -95l50 40l-160 140l-160 -140l50 -40z" />
    <glyph glyph-name="wcircumflex" unicode="&#x175;" horiz-adv-x="680" 
d="M5 460l200 -495l131 335l139 -335l200 495h-90l-116 -301l-134 336l-125 -334l-115 299h-90zM335 650l110 -95l50 40l-160 140l-160 -140l50 -40z" />
    <glyph glyph-name="Ycircumflex" unicode="&#x176;" horiz-adv-x="561" 
d="M461 700l-181 -324l-180 324h-95l233 -399v-301h85v302l233 398h-95zM281 865l110 -95l50 40l-160 140l-160 -140l50 -40z" />
    <glyph glyph-name="ycircumflex" unicode="&#x177;" horiz-adv-x="440" 
d="M440 460h-90l-142 -356l33 -4l-146 360h-95l176 -395l-126 -285h90zM220 625l110 -95l50 40l-160 140l-160 -140l50 -40z" />
    <glyph glyph-name="Ydieresis" unicode="&#x178;" horiz-adv-x="561" 
d="M126 825q0 -22 16 -38.5t38 -16.5q23 0 39.5 16.5t16.5 38.5q0 23 -16.5 39t-39.5 16q-22 0 -38 -16t-16 -39zM326 825q0 -22 16 -38.5t38 -16.5q23 0 39.5 16.5t16.5 38.5q0 23 -16.5 39t-39.5 16q-22 0 -38 -16t-16 -39zM461 700l-181 -324l-180 324h-95l233 -399v-301
h85v302l233 398h-95z" />
    <glyph glyph-name="Zacute" unicode="&#x179;" horiz-adv-x="545" 
d="M35 620h348l-368 -620h490v80h-348l368 620h-490v-80zM440 920l-75 40l-150 -160l45 -30z" />
    <glyph glyph-name="zacute" unicode="&#x17a;" horiz-adv-x="460" 
d="M300 385l-285 -385h410v75h-265l285 385h-400v-75h255zM405 700l-75 40l-150 -160l45 -30z" />
    <glyph glyph-name="Zdotaccent" unicode="&#x17b;" horiz-adv-x="545" 
d="M35 620h348l-368 -620h490v80h-348l368 620h-490v-80zM225 825q0 -22 16.5 -38.5t38.5 -16.5q23 0 39 16.5t16 38.5q0 23 -16 39t-39 16q-22 0 -38.5 -16t-16.5 -39z" />
    <glyph glyph-name="zdotaccent" unicode="&#x17c;" horiz-adv-x="460" 
d="M300 385l-285 -385h410v75h-265l285 385h-400v-75h255zM190 615q0 -22 16.5 -38.5t38.5 -16.5q23 0 39 16.5t16 38.5q0 23 -16 39t-39 16q-22 0 -38.5 -16t-16.5 -39z" />
    <glyph glyph-name="Zcaron" unicode="&#x17d;" horiz-adv-x="545" 
d="M35 620h348l-368 -620h490v80h-348l368 620h-490v-80zM280 855l-110 95l-50 -40l160 -140l160 140l-50 40z" />
    <glyph glyph-name="zcaron" unicode="&#x17e;" horiz-adv-x="460" 
d="M245 615l-110 95l-50 -40l160 -140l160 140l-50 40zM300 385l-285 -385h410v75h-265l285 385h-400v-75h255z" />
    <glyph glyph-name="florin" unicode="&#x192;" horiz-adv-x="600" 
d="M204 -200q37 -1 65.5 18.5t45.5 56t20 87.5l23 423h78l6 75h-80l10 160q3 44 16.5 67.5t35.5 23.5q9 0 18.5 -5.5t25.5 -20.5l43 62q-25 23 -45.5 32t-43.5 10q-56 2 -91 -42t-40 -121l-9 -166h-60l-6 -75h62l-24 -417q-3 -43 -16 -66.5t-36 -23.5q-9 0 -18.5 5.5
t-25.5 20.5l-43 -62q26 -22 46.5 -31.5t42.5 -10.5z" />
    <glyph glyph-name="uni0212" unicode="&#x212;" horiz-adv-x="560" 
d="M205 345l240 -345h105l-250 345h-95zM80 700v-700h85v700h-85zM127 625h143q45 0 79.5 -16t54 -46t19.5 -73t-19.5 -73t-54 -46t-79.5 -16h-143v-75h143q68 0 121.5 25.5t85 73t31.5 111.5q0 65 -31.5 112t-85 72.5t-121.5 25.5h-143v-75zM117 770q0 35 17.5 67t53 52.5
t87.5 20.5q53 0 88 -20.5t52.5 -52.5t17.5 -67h-71q0 13 -7 30.5t-26 31t-54 13.5t-54 -13.5t-26 -31t-7 -30.5h-71z" />
    <glyph glyph-name="uni0213" unicode="&#x213;" horiz-adv-x="343" 
d="M155 460h-80v-460h80v460zM294 372l44 66q-18 19 -39.5 25.5t-46.5 6.5q-32 0 -63 -25t-50.5 -67.5t-19.5 -97.5h36q0 33 6.5 59t23.5 41t47 15q20 0 33 -5.5t29 -17.5zM49 530q0 35 17.5 67t53 52.5t87.5 20.5q53 0 88 -20.5t52.5 -52.5t17.5 -67h-71q0 13 -7 30.5
t-26 31t-54 13.5t-54 -13.5t-26 -31t-7 -30.5h-71z" />
    <glyph glyph-name="uni0218" unicode="&#x218;" horiz-adv-x="548" 
d="M112 226l-72 -43q22 -58 58.5 -101t85.5 -67.5t106 -24.5q70 0 117 25t71.5 70.5t24.5 104.5q0 48 -17 82.5t-44 58t-58 39.5t-58 26q-42 16 -79 34t-60 41.5t-23 57.5q0 31 14 53t40 34.5t61 12.5q39 0 66 -16.5t46 -43t34 -55.5l69 46q-14 36 -43.5 70.5t-72.5 57
t-100 22.5t-103 -21.5t-73 -61t-27 -92.5q0 -45 17.5 -78t44.5 -56t57.5 -38.5t56.5 -24.5q40 -14 77.5 -33t62 -48t24.5 -74q0 -35 -13.5 -60.5t-40 -39t-66.5 -13.5q-33 0 -59.5 11t-48.5 31t-40.5 49t-34.5 65zM294 -70l-88 -259l58 -21l110 250z" />
    <glyph glyph-name="uni0219" unicode="&#x219;" horiz-adv-x="403" 
d="M91 161l-66 -38q7 -37 33.5 -67.5t65.5 -48t81 -17.5q74 0 121 33t47 107q0 34 -18 59.5t-47 44.5t-62 32q-25 11 -51 22t-43.5 24.5t-17.5 31.5q0 27 20 38.5t50 11.5q19 0 38 -7.5t35.5 -19.5t27.5 -28l64 41q-9 26 -34.5 46t-60 32t-71.5 12t-71 -14.5t-56 -41.5
t-22 -65t20 -63.5t50.5 -41.5t61.5 -29q27 -10 50.5 -22t38.5 -28.5t15 -41.5q0 -30 -21 -44t-59 -14q-28 0 -53 12.5t-42.5 34t-23.5 49.5zM209 -70l-88 -259l58 -21l110 250z" />
    <glyph glyph-name="uni021A" unicode="&#x21a;" horiz-adv-x="465" 
d="M10 620h180v-620h85v620h180v80h-445v-80zM237 -60l-88 -259l58 -21l110 250z" />
    <glyph glyph-name="uni021B" unicode="&#x21b;" horiz-adv-x="240" 
d="M5 460v-75h230v75h-230zM80 620v-620h80v620h-80zM124 -60l-88 -259l58 -21l110 250z" />
    <glyph glyph-name="uni0237" unicode="&#x237;" horiz-adv-x="250" 
d="M-17 -114l-44 -66q8 -10 20 -19t29.5 -15t38.5 -6q42 0 72 17.5t45.5 53t15.5 89.5v520h-80v-510q0 -33 -5.5 -52.5t-16.5 -28.5t-26 -9q-12 0 -25 4.5t-24 21.5z" />
    <glyph glyph-name="circumflex" unicode="&#x2c6;" horiz-adv-x="480" 
d="M240 645l110 -95l50 40l-160 140l-160 -140l50 -40z" />
    <glyph glyph-name="caron" unicode="&#x2c7;" horiz-adv-x="480" 
d="M240 655l-110 95l-50 -40l160 -140l160 140l-50 40z" />
    <glyph glyph-name="breve" unicode="&#x2d8;" horiz-adv-x="546" 
d="M115 850q0 -34 17.5 -66.5t53 -53t87.5 -20.5q53 0 88 20.5t52.5 53t17.5 66.5h-71q0 -13 -7 -30.5t-26 -31t-54 -13.5t-54 13.5t-26 31t-7 30.5h-71z" />
    <glyph glyph-name="dotaccent" unicode="&#x2d9;" horiz-adv-x="300" 
d="M95 790q0 -22 16.5 -38.5t38.5 -16.5q23 0 39 16.5t16 38.5q0 23 -16 39t-39 16q-22 0 -38.5 -16t-16.5 -39z" />
    <glyph glyph-name="ring" unicode="&#x2da;" horiz-adv-x="278" 
d="M37 785q0 -45 31.5 -72.5t70.5 -27.5t70.5 27.5t31.5 72.5t-31.5 72.5t-70.5 27.5t-70.5 -27.5t-31.5 -72.5zM88 785q0 25 16 39t35 14t35 -14t16 -39t-16 -39t-35 -14t-35 14t-16 39z" />
    <glyph glyph-name="ogonek" unicode="&#x2db;" horiz-adv-x="260" 
d="M194 -130q-10 -10 -20 -15t-30 -5q-22 0 -35 11.5t-13 38.5q0 19 12.5 37.5t33.5 35t47 27.5l-41 25q-35 -18 -65 -40.5t-48.5 -48.5t-18.5 -56q0 -29 13.5 -52t40.5 -35.5t69 -12.5q32 0 54.5 12.5t33.5 27.5z" />
    <glyph glyph-name="tilde" unicode="&#x2dc;" horiz-adv-x="530" 
d="M100 625l53 -37q0 8 4 20t15 21.5t31 9.5q23 0 39.5 -11.5t35.5 -23.5t46 -12q25 0 46 10.5t36.5 27.5t23.5 35l-46 43q-15 -24 -28.5 -36t-27.5 -12q-20 0 -33 7t-24.5 16.5t-27 16.5t-39.5 7q-22 0 -44.5 -10.5t-38.5 -28.5t-21 -43z" />
    <glyph glyph-name="hungarumlaut" unicode="&#x2dd;" horiz-adv-x="0" 
d="M52 511l134 191l-82 20l-104 -194zM216 511l136 191l-84 20l-103 -194z" />
    <glyph glyph-name="gravecomb" unicode="&#x300;" horiz-adv-x="0" 
d="M180 545l45 30l-150 160l-75 -40z" />
    <glyph glyph-name="acutecomb" unicode="&#x301;" horiz-adv-x="0" 
d="M60 545l180 150l-75 40l-150 -160z" />
    <glyph glyph-name="uni0302" unicode="&#x302;" horiz-adv-x="0" 
d="M41 547l127 109h-34l127 -109l41 49l-151 130l-151 -130z" />
    <glyph glyph-name="tildecomb" unicode="&#x303;" horiz-adv-x="0" 
d="M53 588q0 8 4 20t15 21.5t31 9.5q23 0 39.5 -11.5t35.5 -23.5t46 -12q25 0 46 10.5t36.5 27.5t23.5 35l-46 43q-15 -24 -28.5 -36t-27.5 -12q-20 0 -33 7t-24.5 16.5t-27 16.5t-39.5 7q-22 0 -44.5 -10.5t-38.5 -28.5t-21 -43z" />
    <glyph glyph-name="uni0304" unicode="&#x304;" horiz-adv-x="0" 
d="M0 600h350v75h-350v-75z" />
    <glyph glyph-name="uni0306" unicode="&#x306;" horiz-adv-x="0" 
d="M158 540q46 0 81.5 18t56 50t20.5 72h-71q0 -21 -11.5 -38t-31 -27t-44.5 -10t-44.5 10t-31 27t-11.5 38h-71q0 -40 20.5 -72t56 -50t81.5 -18z" />
    <glyph glyph-name="uni0307" unicode="&#x307;" horiz-adv-x="0" 
d="M55 570q23 0 39 16.5t16 38.5q0 23 -16 39t-39 16q-22 0 -38.5 -16t-16.5 -39q0 -22 16.5 -38.5t38.5 -16.5z" />
    <glyph glyph-name="uni0308" unicode="&#x308;" horiz-adv-x="0" 
d="M55 605q25 0 40 15t15 40t-15 40t-40 15t-40 -15t-15 -40t15 -40t40 -15zM255 605q25 0 40 15t15 40t-15 40t-40 15t-40 -15t-15 -40t15 -40t40 -15z" />
    <glyph glyph-name="uni030A" unicode="&#x30a;" horiz-adv-x="0" 
d="M112 520q31 0 56.5 15t41 40t15.5 55q0 31 -15.5 55.5t-41 39.5t-56.5 15q-46 0 -79 -32t-33 -78t33 -78t79 -32zM112 572q-23 0 -39.5 17t-16.5 41t16.5 41t39.5 17t39.5 -17t16.5 -41t-16.5 -41t-39.5 -17z" />
    <glyph glyph-name="uni030B" unicode="&#x30b;" horiz-adv-x="0" 
d="M52 511l134 191l-82 20l-104 -194zM216 511l136 191l-84 20l-103 -194z" />
    <glyph glyph-name="uni030C" unicode="&#x30c;" horiz-adv-x="0" 
d="M151 547l151 131l-41 48l-127 -109h34l-127 109l-41 -48z" />
    <glyph glyph-name="uni0312" unicode="&#x312;" horiz-adv-x="0" 
d="M80 500l88 259l-58 21l-110 -250z" />
    <glyph glyph-name="uni0326" unicode="&#x326;" horiz-adv-x="0" 
d="M40 -220l114 170l-56 33l-98 -180z" />
    <glyph glyph-name="uni0327" unicode="&#x327;" horiz-adv-x="0" 
d="M89 -220q47 0 77 27t30 67q0 30 -20.5 54.5t-52.5 24.5q-19 0 -27.5 -5t-16.5 -20h24l75 132h-61l-80 -153q10 2 25 2.5t27 0.5q26 0 38 -9t12 -27q0 -19 -13 -29.5t-37 -10.5q-19 0 -32 3.5t-34 15.5l-23 -45q21 -15 41 -21.5t48 -6.5z" />
    <glyph glyph-name="uni0328" unicode="&#x328;" horiz-adv-x="0" 
d="M123 -220q32 0 54.5 12.5t33.5 27.5l-33 50q-10 -10 -20 -15t-30 -5q-22 0 -35 11.5t-13 38.5q0 19 12.5 37.5t33.5 35t47 27.5l-41 25q-35 -18 -65 -40.5t-48.5 -48.5t-18.5 -56q0 -29 13.5 -52t40.5 -35.5t69 -12.5z" />
    <glyph glyph-name="uni0394" unicode="&#x394;" horiz-adv-x="600" 
d="M18 0l282 800l281 -800h-563zM138 76h324l-162 504z" />
    <glyph glyph-name="uni03A9" unicode="&#x3a9;" horiz-adv-x="600" 
d="M66 0v68h87q-26 36 -45 78t-29 86t-10 85q0 69 30.5 123.5t82.5 86.5t118 32t118 -32t82 -86.5t30 -123.5q0 -41 -10 -85t-29 -86t-45 -78h87v-68h-193v78q29 23 51.5 61t35.5 83t13 89q0 51 -16 85.5t-47 52t-77 17.5t-77.5 -17.5t-48 -52t-16.5 -85.5q0 -43 13.5 -88.5
t36.5 -83.5t51 -61v-78h-193z" />
    <glyph glyph-name="uni03BC" unicode="&#x3bc;" horiz-adv-x="525" 
d="M155 460h-80v-780h80v328q17 -9 36.5 -13.5t41.5 -4.5q42 0 77.5 19t59.5 53v-62h80v460h-80v-280q0 -33 -14.5 -59t-41 -41t-61.5 -15q-49 0 -73.5 29t-24.5 86v280z" />
    <glyph glyph-name="pi" unicode="&#x3c0;" horiz-adv-x="540" 
d="M90 430v-430h80v430h-80zM30 460v-75h470v75h-470zM340 430v-309q0 -54 16 -82t45.5 -38t71.5 -10v80q-15 0 -27 4t-19 18.5t-7 47.5v289h-80z" />
    <glyph glyph-name="uni0400" unicode="&#x400;" horiz-adv-x="550" 
d="M127 0h353v80h-353v-80zM127 620h353v80h-353v-80zM127 340h333v80h-333v-80zM80 700v-700h85v700h-85zM100 920l180 -150l45 30l-150 160z" />
    <glyph glyph-name="uni0401" unicode="&#x401;" horiz-adv-x="550" 
d="M127 0h353v80h-353v-80zM127 620h353v80h-353v-80zM127 340h333v80h-333v-80zM80 700v-700h85v700h-85zM325 825q0 -22 16.5 -38.5t38.5 -16.5q23 0 39 16.5t16 38.5q0 23 -16 39t-39 16q-22 0 -38.5 -16t-16.5 -39zM125 825q0 -22 16.5 -38.5t38.5 -16.5q23 0 39 16.5
t16 38.5q0 23 -16 39t-39 16q-22 0 -38.5 -16t-16.5 -39z" />
    <glyph glyph-name="uni0403" unicode="&#x403;" horiz-adv-x="435" 
d="M80 700v-700h85v620h260v80h-345zM433 920l-75 40l-150 -160l45 -30z" />
    <glyph glyph-name="uni040C" unicode="&#x40c;" horiz-adv-x="565" 
d="M80 700v-700h85v700h-85zM440 700l-301 -330l316 -370h105l-318 372l303 328h-105zM493 920l-75 40l-150 -160l45 -30z" />
    <glyph glyph-name="uni040D" unicode="&#x40d;" horiz-adv-x="775" 
d="M690 605l5 130l-610 -640l-5 -130zM165 700h-85v-735l85 110v625zM695 735l-85 -110v-625h85v735zM255 895l180 -150l45 30l-150 160z" />
    <glyph glyph-name="uni040E" unicode="&#x40e;" horiz-adv-x="565" 
d="M565 700h-95l-212 -466l53 -4l-206 470h-105l231 -493l-90 -207h95zM127 910q0 -34 17.5 -66.5t53 -53t87.5 -20.5q53 0 88 20.5t52.5 53t17.5 66.5h-71q0 -13 -7 -30.5t-26 -31t-54 -13.5t-54 13.5t-26 31t-7 30.5h-71z" />
    <glyph glyph-name="uni0410" unicode="&#x410;" horiz-adv-x="660" 
d="M147 210h370l-30 80h-310zM330 542l120 -282l8 -20l102 -240h95l-325 735l-325 -735h95l104 246l8 18z" />
    <glyph glyph-name="uni0411" unicode="&#x411;" horiz-adv-x="548" 
d="M127 340h143q45 0 79.5 -14.5t54 -43.5t19.5 -72t-19.5 -72t-54 -43.5t-79.5 -14.5h-143v-80h143q68 0 121.5 25.5t85 73t31.5 111.5q0 65 -31.5 112t-85 72.5t-121.5 25.5h-143v-80zM80 700v-700h85v620h290v80h-375z" />
    <glyph glyph-name="uni0412" unicode="&#x412;" horiz-adv-x="558" 
d="M147 370h113q63 0 109.5 18t72.5 53t26 84q0 60 -26 98.5t-72.5 57.5t-109.5 19h-180v-700h190q68 0 121.5 22.5t85 68t31.5 114.5q0 48 -18 83t-50.5 57.5t-75.5 33.5t-94 11h-123v-47h123q34 0 62 -8.5t48.5 -25.5t31.5 -42t11 -57q0 -43 -19.5 -73t-54 -46t-79.5 -16
h-105v550h95q53 0 88 -27.5t35 -77.5q0 -33 -16 -56t-44 -35t-63 -12h-113v-47z" />
    <glyph glyph-name="uni0413" unicode="&#x413;" horiz-adv-x="435" 
d="M80 700v-700h85v620h260v80h-345z" />
    <glyph glyph-name="uni0414" unicode="&#x414;" horiz-adv-x="795" 
d="M395 542l195 -512h90l-285 705l-285 -705h90zM675 0v-110h75v190h-710v-190h75v110h560z" />
    <glyph glyph-name="uni0415" unicode="&#x415;" horiz-adv-x="550" 
d="M127 0h353v80h-353v-80zM127 620h353v80h-353v-80zM127 340h333v80h-333v-80zM80 700v-700h85v700h-85z" />
    <glyph glyph-name="uni0416" unicode="&#x416;" horiz-adv-x="895" 
d="M125 700h-105l303 -328l-318 -372h105l316 370zM410 700v-700h85v700h-85zM770 700l-291 -330l306 -370h105l-318 372l303 328h-105z" />
    <glyph glyph-name="uni0417" unicode="&#x417;" horiz-adv-x="606" 
d="M283 345q58 0 105.5 14t81.5 38.5t52.5 57t18.5 69.5q0 50 -27 92t-77 68t-120 26q-67 0 -118.5 -23.5t-80 -64.5t-28.5 -96h81q0 31 19 55t52.5 38t75.5 14q45 0 75.5 -14t45.5 -39.5t15 -58.5t-20 -60.5t-58 -44t-93 -16.5v-55zM313 -10q78 0 133.5 24t85 68t29.5 103
q0 70 -37 112.5t-100 62.5t-141 20v-55q55 0 98 -14.5t68 -43.5t25 -72q0 -57 -39 -91t-122 -34q-55 0 -90.5 15t-54 41t-22.5 59h-86q0 -41 16.5 -76.5t48.5 -62t79 -41.5t109 -15z" />
    <glyph glyph-name="uni0418" unicode="&#x418;" horiz-adv-x="775" 
d="M690 605l5 130l-610 -640l-5 -130zM165 700h-85v-735l85 110v625zM695 735l-85 -110v-625h85v735z" />
    <glyph glyph-name="uni0419" unicode="&#x419;" horiz-adv-x="775" 
d="M690 605l5 130l-610 -640l-5 -130zM165 700h-85v-735l85 110v625zM695 735l-85 -110v-625h85v735zM257 905q0 -34 17.5 -66.5t53 -53t87.5 -20.5q53 0 88 20.5t52.5 53t17.5 66.5h-71q0 -13 -7 -30.5t-26 -31t-54 -13.5t-54 13.5t-26 31t-7 30.5h-71z" />
    <glyph glyph-name="uni041A" unicode="&#x41a;" horiz-adv-x="565" 
d="M80 700v-700h85v700h-85zM440 700l-301 -330l316 -370h105l-318 372l303 328h-105z" />
    <glyph glyph-name="uni041B" unicode="&#x41b;" horiz-adv-x="658" 
d="M578 700h-475v-440q0 -40 -6 -74t-18 -59.5t-29 -39.5t-40 -14v-73q57 0 95.5 33t58 88t19.5 119v380h310v-620h85v700z" />
    <glyph glyph-name="uni041C" unicode="&#x41c;" horiz-adv-x="810" 
d="M177 473l228 -408l228 408l52 -473h85l-85 735l-280 -507l-280 507l-85 -735h85z" />
    <glyph glyph-name="uni041D" unicode="&#x41d;" horiz-adv-x="715" 
d="M127 340h480v80h-480v-80zM550 700v-700h85v700h-85zM80 700v-700h85v700h-85z" />
    <glyph glyph-name="uni041E" unicode="&#x41e;" horiz-adv-x="790" 
d="M130 350q0 79 34.5 141t94.5 98t136 36q77 0 136.5 -36t94 -98t34.5 -141t-34.5 -141t-94 -98t-136.5 -36q-76 0 -136 36t-94.5 98t-34.5 141zM40 350q0 -76 26.5 -142t74.5 -114.5t113 -76t141 -27.5q77 0 141.5 27.5t112.5 76t74.5 114.5t26.5 142q0 77 -26.5 142.5
t-74.5 114t-112.5 76t-141.5 27.5q-76 0 -141 -27.5t-113 -76t-74.5 -114t-26.5 -142.5z" />
    <glyph glyph-name="uni041F" unicode="&#x41f;" horiz-adv-x="715" 
d="M550 620v-620h85v700h-555v-700h85v620h385z" />
    <glyph glyph-name="uni0420" unicode="&#x420;" horiz-adv-x="548" 
d="M80 700v-700h85v700h-85zM127 620h143q68 0 110.5 -32.5t42.5 -97.5q0 -64 -42.5 -97t-110.5 -33h-143v-80h143q68 0 121.5 25.5t85 73t31.5 111.5q0 65 -31.5 112t-85 72.5t-121.5 25.5h-143v-80z" />
    <glyph glyph-name="uni0421" unicode="&#x421;" horiz-adv-x="685" 
d="M130 350q0 82 36.5 143.5t95.5 96.5t128 35q50 0 91.5 -13t75.5 -36.5t58 -54.5v112q-44 39 -96 58t-129 19q-73 0 -136.5 -26.5t-111.5 -75t-75 -114.5t-27 -144t27 -144t75 -114.5t111.5 -75t136.5 -26.5q77 0 129 19t96 58v112q-24 -31 -58 -54.5t-75.5 -36.5
t-91.5 -13q-69 0 -128 35t-95.5 97t-36.5 143z" />
    <glyph glyph-name="uni0422" unicode="&#x422;" horiz-adv-x="465" 
d="M10 620h180v-620h85v620h180v80h-445v-80z" />
    <glyph glyph-name="uni0423" unicode="&#x423;" horiz-adv-x="565" 
d="M565 700h-95l-212 -466l53 -4l-206 470h-105l231 -493l-90 -207h95z" />
    <glyph glyph-name="uni0424" unicode="&#x424;" horiz-adv-x="783" 
d="M349 700v-700h85v700h-85zM658 350q0 -61 -30 -102.5t-83 -62t-122 -20.5h-63q-69 0 -122 20.5t-83 62t-30 102.5q0 62 30 103t83 61.5t122 20.5h63q69 0 122 -20.5t83 -61.5t30 -103zM743 350q0 85 -41.5 145t-114 92.5t-164.5 32.5h-63q-92 0 -164.5 -32.5t-114 -92.5
t-41.5 -145q0 -84 41.5 -144.5t114 -93t164.5 -32.5h63q92 0 164.5 32.5t114 93t41.5 144.5z" />
    <glyph glyph-name="uni0425" unicode="&#x425;" horiz-adv-x="555" 
d="M430 700l-149 -259l-146 259h-100l203 -333l-228 -367h100l170 293l165 -293h100l-222 367l207 333h-100z" />
    <glyph glyph-name="uni0426" unicode="&#x426;" horiz-adv-x="760" 
d="M165 80v620h-85v-700h565v-110h75v190h-85v620h-85v-620h-385z" />
    <glyph glyph-name="uni0427" unicode="&#x427;" horiz-adv-x="615" 
d="M290 280h217v75h-217v-75zM450 700v-700h85v700h-85zM160 700h-80v-182q0 -67 23.5 -121t70.5 -85.5t116 -31.5v75q-43 0 -72 22t-43.5 59t-14.5 82v182z" />
    <glyph glyph-name="uni0428" unicode="&#x428;" horiz-adv-x="985" 
d="M820 80h-285v620h-85v-620h-285v620h-85v-700h825v700h-85v-620z" />
    <glyph glyph-name="uni0429" unicode="&#x429;" horiz-adv-x="1030" 
d="M820 80h-285v620h-85v-620h-285v620h-85v-700h835v-110h75v190h-85v620h-85v-620z" />
    <glyph glyph-name="uni042A" unicode="&#x42a;" horiz-adv-x="658" 
d="M237 340h143q45 0 79.5 -14.5t54 -43.5t19.5 -72t-19.5 -72t-54 -43.5t-79.5 -14.5h-143v-80h143q68 0 121.5 25.5t85 73t31.5 111.5q0 65 -31.5 112t-85 72.5t-121.5 25.5h-143v-80zM190 620v-620h85v700h-265v-80h180z" />
    <glyph glyph-name="uni042B" unicode="&#x42b;" horiz-adv-x="765" 
d="M600 700v-700h85v700h-85zM80 700v-700h85v700h-85zM127 340h143q45 0 79.5 -14.5t54 -43.5t19.5 -72t-19.5 -72t-54 -43.5t-79.5 -14.5h-143v-80h143q68 0 121.5 25.5t85 73t31.5 111.5q0 65 -31.5 112t-85 72.5t-121.5 25.5h-143v-80z" />
    <glyph glyph-name="uni042C" unicode="&#x42c;" horiz-adv-x="548" 
d="M80 700v-700h85v700h-85zM127 340h143q45 0 79.5 -14.5t54 -43.5t19.5 -72t-19.5 -72t-54 -43.5t-79.5 -14.5h-143v-80h143q68 0 121.5 25.5t85 73t31.5 111.5q0 65 -31.5 112t-85 72.5t-121.5 25.5h-143v-80z" />
    <glyph glyph-name="uni042D" unicode="&#x42d;" horiz-adv-x="685" 
d="M132 310h423v80h-423v-80zM555 350q0 -81 -36 -143t-95.5 -97t-128.5 -35q-49 0 -91 13t-75.5 36.5t-58.5 54.5v-112q44 -39 96.5 -58t128.5 -19q73 0 136.5 26.5t111.5 75t75 114.5t27 144t-27 144t-75 114.5t-111.5 75t-136.5 26.5q-76 0 -128.5 -19t-96.5 -58v-112
q25 31 58.5 54.5t75.5 36.5t91 13q69 0 128.5 -35t95.5 -96.5t36 -143.5z" />
    <glyph glyph-name="uni042E" unicode="&#x42e;" horiz-adv-x="1030" 
d="M127 340h220v80h-220v-80zM80 700v-700h85v700h-85zM370 350q0 79 34.5 141t94.5 98t136 36q77 0 136.5 -36t94 -98t34.5 -141t-34.5 -141t-94 -98t-136.5 -36q-76 0 -136 36t-94.5 98t-34.5 141zM280 350q0 -76 26.5 -142t74.5 -114.5t113 -76t141 -27.5
q77 0 141.5 27.5t112.5 76t74.5 114.5t26.5 142q0 77 -26.5 142.5t-74.5 114t-112.5 76t-141.5 27.5q-76 0 -141 -27.5t-113 -76t-74.5 -114t-26.5 -142.5z" />
    <glyph glyph-name="uni042F" unicode="&#x42f;" horiz-adv-x="560" 
d="M355 345h-95l-250 -345h105zM480 700h-85v-700h85v700zM433 625v75h-143q-67 0 -121 -25.5t-85.5 -72.5t-31.5 -112q0 -64 31.5 -111.5t85.5 -73t121 -25.5h143v75h-143q-45 0 -79.5 16t-54 46t-19.5 73t19.5 73t54 46t79.5 16h143z" />
    <glyph glyph-name="uni0430" unicode="&#x430;" horiz-adv-x="485" 
d="M111 135q0 28 13 48t39.5 31t66.5 11q44 0 79 -11.5t69 -35.5v47q-7 9 -26 23.5t-50.5 26t-75.5 11.5q-60 0 -104 -18.5t-68 -52.5t-24 -83q0 -47 21.5 -78.5t57.5 -47.5t79 -16q48 0 87 16.5t62.5 48t23.5 75.5l-16 50q0 -43 -17.5 -69t-48.5 -38t-71 -12q-27 0 -49 8.5
t-35 25t-13 40.5zM111 352q11 8 30.5 19.5t46.5 20t60 8.5q38 0 67.5 -17.5t29.5 -52.5v-330h80v330q0 45 -22.5 76t-62 47.5t-92.5 16.5q-62 0 -106 -19t-70 -38z" />
    <glyph glyph-name="uni0431" unicode="&#x431;" horiz-adv-x="546" 
d="M273 395q45 0 80.5 -21t56 -58.5t20.5 -85.5t-20.5 -85t-56 -58.5t-80.5 -21.5t-80.5 21.5t-56.5 58.5t-21 85l-80 60q0 -99 31.5 -166t85.5 -100.5t121 -33.5q68 0 121.5 31t85 85.5t31.5 123.5q0 70 -31.5 124t-85 85t-121.5 31v-75zM79 230h36q0 40 14.5 70.5t38 51.5
t51.5 32t54 11v75q-43 0 -78.5 -16.5t-61.5 -47.5t-40 -75.5t-14 -100.5zM35 290l70 -53v103q0 50 13 100.5t47.5 90.5t96.5 60q55 18 98.5 45t70.5 63.5t32 80.5h-79q-7 -36 -40.5 -68.5t-101.5 -55.5q-80 -27 -125.5 -77.5t-63.5 -122.5t-18 -166z" />
    <glyph glyph-name="uni0432" unicode="&#x432;" horiz-adv-x="453" 
d="M122 240v-42h133q23 0 39.5 -4.5t27 -13.5t16 -20t5.5 -25q0 -27 -21.5 -46t-66.5 -19h-133v-70h153q79 0 113.5 36.5t34.5 88.5q0 45 -22 70t-60 35t-86 10h-133zM122 220h123q43 0 78.5 12.5t57.5 38t22 64.5q0 45 -22 72.5t-57.5 40t-78.5 12.5h-123v-70h123
q36 0 57 -16.5t21 -43.5q0 -13 -5.5 -24.5t-15.5 -20.5t-24.5 -13.5t-32.5 -4.5h-123v-47zM75 460v-460h80v460h-80z" />
    <glyph glyph-name="uni0433" unicode="&#x433;" horiz-adv-x="330" 
d="M80 460v-460h80v385h165v75h-245z" />
    <glyph glyph-name="uni0434" unicode="&#x434;" horiz-adv-x="655" 
d="M325 322l135 -292h90l-225 465l-225 -465h90zM530 0v-90h80v165h-570v-165h85v90h405z" />
    <glyph glyph-name="uni0435" unicode="&#x435;" horiz-adv-x="515" 
d="M86 210h393q1 6 1 12v12q0 73 -27 125.5t-76 81.5t-114 29q-59 0 -106.5 -24t-77.5 -67t-40 -100q-2 -12 -3 -24t-1 -25q0 -69 28.5 -123.5t78 -85.5t111.5 -31q60 0 100 14.5t68 41t51 61.5l-65 41q-15 -25 -36 -43.5t-47.5 -29t-60.5 -10.5q-45 0 -78 19t-51 56t-18 90
l2 30q0 43 19.5 74.5t52.5 48.5t73 17t67.5 -15.5t43 -43t19.5 -63.5h-307v-68z" />
    <glyph glyph-name="uni0436" unicode="&#x436;" horiz-adv-x="675" 
d="M555 460l-200 -190l220 -270h100l-230 260l210 200h-100zM375 460h-75v-460h75v460zM120 460h-100l210 -200l-230 -260h100l220 270z" />
    <glyph glyph-name="uni0437" unicode="&#x437;" horiz-adv-x="471" 
d="M238 230q79 0 123.5 33t44.5 83q0 34 -20.5 62t-56.5 45t-81 17q-48 0 -86 -19.5t-60 -52.5t-22 -72h81q0 16 9 32.5t28.5 28t49.5 11.5q36 0 56 -15.5t20 -42.5q0 -25 -20 -42.5t-66 -17.5v-50zM246 -10q49 0 90 17.5t65.5 50t24.5 77.5q0 65 -51 95t-137 30v-50
q35 0 59.5 -9t37 -26t12.5 -41q0 -22 -12 -39t-34.5 -26t-54.5 -9q-52 0 -75 26t-30 59h-81q8 -67 56.5 -111t129.5 -44z" />
    <glyph glyph-name="uni0438" unicode="&#x438;" horiz-adv-x="545" 
d="M460 380l5 115l-380 -415l-5 -115zM160 460h-80v-495l80 110v385zM465 495l-80 -110v-385h80v495z" />
    <glyph glyph-name="uni0439" unicode="&#x439;" horiz-adv-x="545" 
d="M460 380l5 115l-380 -415l-5 -115zM160 460h-80v-495l80 110v385zM465 495l-80 -110v-385h80v495zM117 695q0 -34 17.5 -66.5t53 -53t87.5 -20.5q53 0 88 20.5t52.5 53t17.5 66.5h-71q0 -13 -7 -30.5t-26 -31t-54 -13.5t-54 13.5t-26 31t-7 30.5h-71z" />
    <glyph glyph-name="uni043A" unicode="&#x43a;" horiz-adv-x="440" 
d="M70 460v-460h80v460h-80zM320 460l-200 -190l220 -270h100l-220 270l200 190h-100z" />
    <glyph glyph-name="uni043B" unicode="&#x43b;" horiz-adv-x="558" 
d="M478 460h-395v-300q0 -49 -21.5 -68t-51.5 -19v-73q52 0 86 17.5t50.5 53t16.5 89.5v225h235v-385h80v460z" />
    <glyph glyph-name="uni043C" unicode="&#x43c;" horiz-adv-x="607" 
d="M512 0h90l-120 495l-45 -130zM272 69l30 -100l190 366l-10 160zM302 -31l30 100l-207 426l-10 -160zM5 0h90l75 365l-45 130z" />
    <glyph glyph-name="uni043D" unicode="&#x43d;" horiz-adv-x="565" 
d="M122 205h340v75h-340v-75zM410 460v-460h80v460h-80zM75 460v-460h80v460h-80z" />
    <glyph glyph-name="uni043E" unicode="&#x43e;" horiz-adv-x="546" 
d="M35 230q0 -69 31.5 -123.5t85.5 -85.5t121 -31q68 0 121.5 31t85 85.5t31.5 123.5q0 70 -31.5 124t-85 85t-121.5 31q-67 0 -121 -31t-85.5 -85t-31.5 -124zM116 230q0 48 20.5 85.5t56 58.5t80.5 21t80.5 -21t56 -58.5t20.5 -85.5t-20.5 -85t-56 -58.5t-80.5 -21.5
t-80.5 21.5t-56 58.5t-20.5 85z" />
    <glyph glyph-name="uni043F" unicode="&#x43f;" horiz-adv-x="525" 
d="M450 460h-375v-460h80v385h215v-385h80v460z" />
    <glyph glyph-name="uni0440" unicode="&#x440;" 
d="M150 -220v680h-80v-680h80zM535 230q0 75 -31 128.5t-82.5 82.5t-114.5 29q-57 0 -100.5 -29t-68 -82.5t-24.5 -128.5q0 -74 24.5 -128t68 -83t100.5 -29q63 0 114.5 29t82.5 83t31 128zM454 230q0 -53 -21.5 -90t-57 -56t-78.5 -19q-35 0 -69 19t-56 56t-22 90t22 90
t56 56t69 19q43 0 78.5 -19t57 -56t21.5 -90z" />
    <glyph glyph-name="uni0441" unicode="&#x441;" horiz-adv-x="478" 
d="M111 230q0 48 20.5 85.5t56 58.5t80.5 21q37 0 69.5 -11.5t56.5 -30.5t34 -42v100q-24 28 -68.5 43.5t-91.5 15.5q-67 0 -121 -31t-85.5 -85t-31.5 -124q0 -69 31.5 -123.5t85.5 -85.5t121 -31q47 0 91.5 15.5t68.5 43.5v100q-10 -22 -34 -41.5t-56.5 -31t-69.5 -11.5
q-45 0 -80.5 21.5t-56 58.5t-20.5 85z" />
    <glyph glyph-name="uni0442" unicode="&#x442;" horiz-adv-x="280" 
d="M5 460v-75h270v75h-270zM100 440v-440h80v440h-80z" />
    <glyph glyph-name="uni0443" unicode="&#x443;" horiz-adv-x="440" 
d="M440 460h-90l-142 -356l33 -4l-146 360h-95l176 -395l-126 -285h90z" />
    <glyph glyph-name="uni0444" unicode="&#x444;" horiz-adv-x="586" 
d="M253 560v-660h80v660h-80zM35 230q0 -69 32 -123.5t90.5 -85.5t135.5 -31q78 0 136 31t90 85.5t32 123.5q0 70 -32 124t-90 85t-136 31q-77 0 -135.5 -31t-90.5 -85t-32 -124zM116 230q0 48 21.5 85.5t61 58.5t94.5 21t94.5 -21t61 -58.5t21.5 -85.5t-21.5 -85t-61 -58.5
t-94.5 -21.5t-94.5 21.5t-61 58.5t-21.5 85z" />
    <glyph glyph-name="uni0445" unicode="&#x445;" horiz-adv-x="420" 
d="M320 460l-110 -160l-110 160h-90l157 -223l-167 -237h90l120 174l120 -174h90l-167 237l157 223h-90z" />
    <glyph glyph-name="uni0446" unicode="&#x446;" horiz-adv-x="565" 
d="M450 75v385h-80v-385h-215v385h-80v-460h385v-90h70v165h-80z" />
    <glyph glyph-name="uni0447" unicode="&#x447;" horiz-adv-x="485" 
d="M230 140h157v75h-157v-75zM330 460v-460h80v460h-80zM130 460h-80v-132q0 -67 16 -108.5t55.5 -60.5t108.5 -19v75q-38 0 -60 11.5t-31 36.5t-9 65v132z" />
    <glyph glyph-name="uni0448" unicode="&#x448;" horiz-adv-x="780" 
d="M430 75v385h-80v-385h-195v385h-80v-460h630v460h-80v-385h-195z" />
    <glyph glyph-name="uni0449" unicode="&#x449;" horiz-adv-x="820" 
d="M430 75v385h-80v-385h-195v385h-80v-460h640v-90h70v165h-80v385h-80v-385h-195z" />
    <glyph glyph-name="uni044A" unicode="&#x44a;" horiz-adv-x="578" 
d="M217 216h143q44 0 66 -19t22 -54q0 -23 -10 -39.5t-29.5 -25t-48.5 -8.5h-143v-70h143q48 0 86 15t60 47t22 81q0 74 -48.5 108.5t-119.5 34.5h-143v-70zM170 385v-385h80v460h-245v-75h165z" />
    <glyph glyph-name="uni044B" unicode="&#x44b;" horiz-adv-x="645" 
d="M490 460v-460h80v460h-80zM75 460v-460h80v460h-80zM122 216h143q44 0 66 -19t22 -54q0 -23 -10 -39.5t-29.5 -25t-48.5 -8.5h-143v-70h143q48 0 86 15t60 47t22 81q0 74 -48.5 108.5t-119.5 34.5h-143v-70z" />
    <glyph glyph-name="uni044C" unicode="&#x44c;" horiz-adv-x="483" 
d="M75 460v-460h80v460h-80zM122 216h143q44 0 66 -19t22 -54q0 -23 -10 -39.5t-29.5 -25t-48.5 -8.5h-143v-70h143q48 0 86 15t60 47t22 81q0 74 -48.5 108.5t-119.5 34.5h-143v-70z" />
    <glyph glyph-name="uni044D" unicode="&#x44d;" horiz-adv-x="478" 
d="M137 267v-74h230l70 74h-300zM367 230q0 -48 -20.5 -85t-56 -58.5t-80.5 -21.5q-37 0 -69.5 11.5t-56 31t-34.5 41.5v-100q24 -28 68.5 -43.5t91.5 -15.5q68 0 121.5 31t85 85.5t31.5 123.5q0 70 -31.5 124t-85 85t-121.5 31q-47 0 -91.5 -15.5t-68.5 -43.5v-100
q11 23 34.5 42t56 30.5t69.5 11.5q45 0 80.5 -21t56 -58.5t20.5 -85.5z" />
    <glyph glyph-name="uni044E" unicode="&#x44e;" horiz-adv-x="746" 
d="M122 205h170v75h-170v-75zM75 460v-460h80v460h-80zM235 230q0 -69 31.5 -123.5t85.5 -85.5t121 -31q68 0 121.5 31t85 85.5t31.5 123.5q0 70 -31.5 124t-85 85t-121.5 31q-67 0 -121 -31t-85.5 -85t-31.5 -124zM316 230q0 48 20.5 85.5t56 58.5t80.5 21t80.5 -21
t56 -58.5t20.5 -85.5t-20.5 -85t-56 -58.5t-80.5 -21.5t-80.5 21.5t-56 58.5t-20.5 85z" />
    <glyph glyph-name="uni044F" unicode="&#x44f;" horiz-adv-x="483" 
d="M141 0l170 240h-88l-170 -240h88zM433 0v460h-80v-460h80zM386 254h-143q-29 0 -48.5 7.5t-29.5 22.5t-10 38t10 38t29.5 22.5t48.5 7.5h143v70h-143q-47 0 -85.5 -14t-60.5 -44t-22 -80q0 -49 22 -79.5t60.5 -44.5t85.5 -14h143v70z" />
    <glyph glyph-name="uni0450" unicode="&#x450;" horiz-adv-x="515" 
d="M86 210h393q1 6 1 12v12q0 73 -27 125.5t-76 81.5t-114 29q-59 0 -106.5 -24t-77.5 -67t-40 -100q-2 -12 -3 -24t-1 -25q0 -69 28.5 -123.5t78 -85.5t111.5 -31q60 0 100 14.5t68 41t51 61.5l-65 41q-15 -25 -36 -43.5t-47.5 -29t-60.5 -10.5q-45 0 -78 19t-51 56t-18 90
l2 30q0 43 19.5 74.5t52.5 48.5t73 17t67.5 -15.5t43 -43t19.5 -63.5h-307v-68zM113 680l180 -150l45 30l-150 160z" />
    <glyph glyph-name="uni0451" unicode="&#x451;" horiz-adv-x="515" 
d="M86 210h393q1 6 1 12v12q0 73 -27 125.5t-76 81.5t-114 29q-59 0 -106.5 -24t-77.5 -67t-40 -100q-2 -12 -3 -24t-1 -25q0 -69 28.5 -123.5t78 -85.5t111.5 -31q60 0 100 14.5t68 41t51 61.5l-65 41q-15 -25 -36 -43.5t-47.5 -29t-60.5 -10.5q-45 0 -78 19t-51 56t-18 90
l2 30q0 43 19.5 74.5t52.5 48.5t73 17t67.5 -15.5t43 -43t19.5 -63.5h-307v-68zM308 585q0 -22 16.5 -38.5t38.5 -16.5q23 0 39 16.5t16 38.5q0 23 -16 39t-39 16q-22 0 -38.5 -16t-16.5 -39zM108 585q0 -22 16.5 -38.5t38.5 -16.5q23 0 39 16.5t16 38.5q0 23 -16 39t-39 16
q-22 0 -38.5 -16t-16.5 -39z" />
    <glyph glyph-name="uni0453" unicode="&#x453;" horiz-adv-x="330" 
d="M80 460v-460h80v385h165v75h-245zM383 680l-75 40l-150 -160l45 -30z" />
    <glyph glyph-name="uni045C" unicode="&#x45c;" horiz-adv-x="440" 
d="M70 460v-460h80v460h-80zM320 460l-200 -190l220 -270h100l-220 270l200 190h-100zM425 680l-75 40l-150 -160l45 -30z" />
    <glyph glyph-name="uni045D" unicode="&#x45d;" horiz-adv-x="545" 
d="M460 380l5 115l-380 -415l-5 -115zM160 460h-80v-495l80 110v385zM465 495l-80 -110v-385h80v495zM115 705l180 -150l45 30l-150 160z" />
    <glyph glyph-name="uni045E" unicode="&#x45e;" horiz-adv-x="440" 
d="M440 460h-90l-142 -356l33 -4l-146 360h-95l176 -395l-126 -285h90zM62 670q0 -34 17.5 -66.5t53 -53t87.5 -20.5q53 0 88 20.5t52.5 53t17.5 66.5h-71q0 -13 -7 -30.5t-26 -31t-54 -13.5t-54 13.5t-26 31t-7 30.5h-71z" />
    <glyph glyph-name="Wgrave" unicode="&#x1e80;" horiz-adv-x="990" 
d="M495 795l45 30l-150 160l-75 -40zM703 185l-208 550l-204 -550l-186 515h-95l275 -735l210 544l210 -544l275 735h-95z" />
    <glyph glyph-name="wgrave" unicode="&#x1e81;" horiz-adv-x="680" 
d="M335 555l45 30l-150 160l-75 -40zM5 460l200 -495l131 335l139 -335l200 495h-90l-116 -301l-134 336l-125 -334l-115 299h-90z" />
    <glyph glyph-name="Wacute" unicode="&#x1e82;" horiz-adv-x="990" 
d="M495 795l180 150l-75 40l-150 -160zM703 185l-208 550l-204 -550l-186 515h-95l275 -735l210 544l210 -544l275 735h-95z" />
    <glyph glyph-name="wacute" unicode="&#x1e83;" horiz-adv-x="680" 
d="M335 555l180 150l-75 40l-150 -160zM5 460l200 -495l131 335l139 -335l200 495h-90l-116 -301l-134 336l-125 -334l-115 299h-90z" />
    <glyph glyph-name="Wdieresis" unicode="&#x1e84;" horiz-adv-x="990" 
d="M540 850q0 -22 16.5 -38.5t38.5 -16.5q23 0 39 16.5t16 38.5q0 23 -16 39t-39 16q-22 0 -38.5 -16t-16.5 -39zM340 850q0 -22 16.5 -38.5t38.5 -16.5q23 0 39 16.5t16 38.5q0 23 -16 39t-39 16q-22 0 -38.5 -16t-16.5 -39zM703 185l-208 550l-204 -550l-186 515h-95
l275 -735l210 544l210 -544l275 735h-95z" />
    <glyph glyph-name="wdieresis" unicode="&#x1e85;" horiz-adv-x="680" 
d="M380 610q0 -22 16.5 -38.5t38.5 -16.5q23 0 39 16.5t16 38.5q0 23 -16 39t-39 16q-22 0 -38.5 -16t-16.5 -39zM180 610q0 -22 16.5 -38.5t38.5 -16.5q23 0 39 16.5t16 38.5q0 23 -16 39t-39 16q-22 0 -38.5 -16t-16.5 -39zM5 460l200 -495l131 335l139 -335l200 495h-90
l-116 -301l-134 336l-125 -334l-115 299h-90z" />
    <glyph glyph-name="uni1E86" unicode="&#x1e86;" horiz-adv-x="990" 
d="M440 850q0 -22 16.5 -38.5t38.5 -16.5q23 0 39 16.5t16 38.5q0 23 -16 39t-39 16q-22 0 -38.5 -16t-16.5 -39zM703 185l-208 550l-204 -550l-186 515h-95l275 -735l210 544l210 -544l275 735h-95z" />
    <glyph glyph-name="uni1E87" unicode="&#x1e87;" horiz-adv-x="680" 
d="M280 610q0 -22 16.5 -38.5t38.5 -16.5q23 0 39 16.5t16 38.5q0 23 -16 39t-39 16q-22 0 -38.5 -16t-16.5 -39zM5 460l200 -495l131 335l139 -335l200 495h-90l-116 -301l-134 336l-125 -334l-115 299h-90z" />
    <glyph glyph-name="uni1E88" unicode="&#x1e88;" horiz-adv-x="990" 
d="M440 -150q0 -22 16.5 -38.5t38.5 -16.5q23 0 39 16.5t16 38.5q0 23 -16 39t-39 16q-22 0 -38.5 -16t-16.5 -39zM703 185l-208 550l-204 -550l-186 515h-95l275 -735l210 544l210 -544l275 735h-95z" />
    <glyph glyph-name="uni1E89" unicode="&#x1e89;" horiz-adv-x="680" 
d="M285 -150q0 -22 16.5 -38.5t38.5 -16.5q23 0 39 16.5t16 38.5q0 23 -16 39t-39 16q-22 0 -38.5 -16t-16.5 -39zM5 460l200 -495l131 335l139 -335l200 495h-90l-116 -301l-134 336l-125 -334l-115 299h-90z" />
    <glyph glyph-name="uni1E9E" unicode="&#x1e9e;" horiz-adv-x="716" 
d="M422 -12q-64 0 -109.5 18.5t-82.5 47.5l40 72q35 -23 70.5 -37.5t87.5 -14.5q41 0 77.5 10t59.5 32.5t23 59.5q0 35 -19 53.5t-47.5 29l-57 21t-47.5 28.5t-19 52q0 29 13.5 47.5t33.5 31.5t40 25.5t33.5 28.5t13.5 41q0 21 -13 42t-43.5 34.5t-82.5 13.5
q-62 0 -114.5 -24.5t-83.5 -78t-31 -139.5l2 -384h-86v391q0 84 27 144.5t73 99.5t104.5 57.5t121.5 18.5q66 0 114.5 -19.5t75 -54.5t26.5 -83q0 -38 -12.5 -63.5t-31.5 -43t-38 -30.5t-31.5 -24t-12.5 -25q0 -17 18.5 -26.5t45.5 -19t54 -24.5t45.5 -42t18.5 -72
q0 -57 -32.5 -100.5t-90.5 -68.5t-133 -25z" />
    <glyph glyph-name="Ygrave" unicode="&#x1ef2;" horiz-adv-x="561" 
d="M281 770l45 30l-150 160l-75 -40zM461 700l-181 -324l-180 324h-95l233 -399v-301h85v302l233 398h-95z" />
    <glyph glyph-name="ygrave" unicode="&#x1ef3;" horiz-adv-x="440" 
d="M220 530l45 30l-150 160l-75 -40zM440 460h-90l-142 -356l33 -4l-146 360h-95l176 -395l-126 -285h90z" />
    <glyph glyph-name="uni2010" unicode="&#x2010;" horiz-adv-x="210" 
d="M5 200h200v75h-200v-75z" />
    <glyph glyph-name="figuredash" unicode="&#x2012;" horiz-adv-x="590" 
d="M70 200h450v75h-450v-75z" />
    <glyph glyph-name="endash" unicode="&#x2013;" horiz-adv-x="740" 
d="M70 200h600v75h-600v-75z" />
    <glyph glyph-name="emdash" unicode="&#x2014;" horiz-adv-x="890" 
d="M70 200h750v75h-750v-75z" />
    <glyph glyph-name="quoteleft" unicode="&#x2018;" horiz-adv-x="275" 
d="M165 470l60 230h-55l-100 -230h95z" />
    <glyph glyph-name="quoteright" unicode="&#x2019;" horiz-adv-x="275" 
d="M110 700l-60 -230h55l100 230h-95z" />
    <glyph glyph-name="quotesinglbase" unicode="&#x201a;" horiz-adv-x="275" 
d="M120 80l-60 -230h55l100 230h-95z" />
    <glyph glyph-name="quotedblleft" unicode="&#x201c;" horiz-adv-x="475" 
d="M165 470l60 230h-55l-100 -230h95zM365 470l60 230h-55l-100 -230h95z" />
    <glyph glyph-name="quotedblright" unicode="&#x201d;" horiz-adv-x="475" 
d="M110 700l-60 -230h55l100 230h-95zM310 700l-60 -230h55l100 230h-95z" />
    <glyph glyph-name="quotedblbase" unicode="&#x201e;" horiz-adv-x="475" 
d="M110 80l-60 -230h55l100 230h-95zM310 80l-60 -230h55l100 230h-95z" />
    <glyph glyph-name="dagger" unicode="&#x2020;" 
d="M90 540v-75h390v75h-390zM245 700v-850h80v850h-80z" />
    <glyph glyph-name="daggerdbl" unicode="&#x2021;" 
d="M90 120v-75h390v75h-390zM90 540v-75h390v75h-390zM245 700v-850h80v850h-80z" />
    <glyph glyph-name="bullet" unicode="&#x2022;" horiz-adv-x="300" 
d="M95 415q0 -22 16.5 -38.5t38.5 -16.5q23 0 39 16.5t16 38.5q0 23 -16 39t-39 16q-22 0 -38.5 -16t-16.5 -39z" />
    <glyph glyph-name="ellipsis" unicode="&#x2026;" horiz-adv-x="900" 
d="M95 40q0 -22 16.5 -38.5t38.5 -16.5q23 0 39 16.5t16 38.5q0 23 -16 39t-39 16q-22 0 -38.5 -16t-16.5 -39zM395 40q0 -22 16.5 -38.5t38.5 -16.5q23 0 39 16.5t16 38.5q0 23 -16 39t-39 16q-22 0 -38.5 -16t-16.5 -39zM695 40q0 -22 16.5 -38.5t38.5 -16.5q23 0 39 16.5
t16 38.5q0 23 -16 39t-39 16q-22 0 -38.5 -16t-16.5 -39z" />
    <glyph glyph-name="perthousand" unicode="&#x2030;" horiz-adv-x="1131" 
d="M780 150q0 -44 19.5 -80.5t55.5 -58t83 -21.5q48 0 83.5 21.5t55 58t19.5 80.5q0 45 -19.5 81t-55 57.5t-83.5 21.5q-47 0 -83 -21.5t-55.5 -57.5t-19.5 -81zM851 150q0 26 10.5 47.5t30 34.5t46.5 13q28 0 47 -13t29.5 -34.5t10.5 -47.5q0 -25 -10.5 -47t-29.5 -35
t-47 -13q-27 0 -46.5 13t-30 35t-10.5 47zM35 550q0 -44 19.5 -80.5t55.5 -58t83 -21.5q48 0 83.5 21.5t55 58t19.5 80.5q0 45 -19.5 81t-55 57.5t-83.5 21.5q-47 0 -83 -21.5t-55.5 -57.5t-19.5 -81zM106 550q0 26 10.5 47.5t30 34.5t46.5 13q28 0 47 -13t29.5 -34.5
t10.5 -47.5q0 -25 -10.5 -47t-29.5 -35t-47 -13q-27 0 -46.5 13t-30 35t-10.5 47zM400 150q0 -44 19.5 -80.5t55.5 -58t83 -21.5q48 0 83.5 21.5t55 58t19.5 80.5q0 45 -19.5 81t-55 57.5t-83.5 21.5q-47 0 -83 -21.5t-55.5 -57.5t-19.5 -81zM471 150q0 26 10.5 47.5
t30 34.5t46.5 13q28 0 47 -13t29.5 -34.5t10.5 -47.5q0 -25 -10.5 -47t-29.5 -35t-47 -13q-27 0 -46.5 13t-30 35t-10.5 47zM563 700l-450 -700h75l450 700h-75z" />
    <glyph glyph-name="uni2031" unicode="&#x2031;" horiz-adv-x="1511" 
d="M1160 150q0 -44 19.5 -80.5t55.5 -58t83 -21.5q48 0 83.5 21.5t55 58t19.5 80.5q0 45 -19.5 81t-55 57.5t-83.5 21.5q-47 0 -83 -21.5t-55.5 -57.5t-19.5 -81zM1231 150q0 26 10.5 47.5t30 34.5t46.5 13q28 0 47 -13t29.5 -34.5t10.5 -47.5q0 -25 -10.5 -47t-29.5 -35
t-47 -13q-27 0 -46.5 13t-30 35t-10.5 47zM780 150q0 -44 19.5 -80.5t55.5 -58t83 -21.5q48 0 83.5 21.5t55 58t19.5 80.5q0 45 -19.5 81t-55 57.5t-83.5 21.5q-47 0 -83 -21.5t-55.5 -57.5t-19.5 -81zM851 150q0 26 10.5 47.5t30 34.5t46.5 13q28 0 47 -13t29.5 -34.5
t10.5 -47.5q0 -25 -10.5 -47t-29.5 -35t-47 -13q-27 0 -46.5 13t-30 35t-10.5 47zM35 550q0 -44 19.5 -80.5t55.5 -58t83 -21.5q48 0 83.5 21.5t55 58t19.5 80.5q0 45 -19.5 81t-55 57.5t-83.5 21.5q-47 0 -83 -21.5t-55.5 -57.5t-19.5 -81zM106 550q0 26 10.5 47.5t30 34.5
t46.5 13q28 0 47 -13t29.5 -34.5t10.5 -47.5q0 -25 -10.5 -47t-29.5 -35t-47 -13q-27 0 -46.5 13t-30 35t-10.5 47zM400 150q0 -44 19.5 -80.5t55.5 -58t83 -21.5q48 0 83.5 21.5t55 58t19.5 80.5q0 45 -19.5 81t-55 57.5t-83.5 21.5q-47 0 -83 -21.5t-55.5 -57.5t-19.5 -81
zM471 150q0 26 10.5 47.5t30 34.5t46.5 13q28 0 47 -13t29.5 -34.5t10.5 -47.5q0 -25 -10.5 -47t-29.5 -35t-47 -13q-27 0 -46.5 13t-30 35t-10.5 47zM563 700l-450 -700h75l450 700h-75z" />
    <glyph glyph-name="guilsinglleft" unicode="&#x2039;" horiz-adv-x="350" 
d="M130 259l150 186l-50 45l-190 -235l190 -235l50 45z" />
    <glyph glyph-name="guilsinglright" unicode="&#x203a;" horiz-adv-x="350" 
d="M220 251l-150 -186l50 -45l190 235l-190 235l-50 -45z" />
    <glyph glyph-name="uni203D" unicode="&#x203d;" horiz-adv-x="557" 
d="M416 500q0 -38 -23 -73.5t-66 -58.5t-103 -23l50 -55q35 0 67.5 10.5t60.5 29.5t49.5 45t33.5 57.5t12 67.5q0 45 -16.5 83t-46 66.5t-69 44.5t-86.5 16q-59 0 -99.5 -14.5t-68.5 -41t-51 -61.5l65 -41q16 25 36.5 43.5t47.5 29t60 10.5q45 0 78 -16t51 -46t18 -73z
M200 510l20 -340h60l20 340h-100zM195 40q0 -22 16.5 -38.5t38.5 -16.5q23 0 39 16.5t16 38.5q0 23 -16 39t-39 16q-22 0 -38.5 -16t-16.5 -39z" />
    <glyph glyph-name="fraction" unicode="&#x2044;" horiz-adv-x="705" 
d="M580 700l-520 -700h65l520 700h-65z" />
    <glyph glyph-name="uni2070" unicode="&#x2070;" horiz-adv-x="372" 
d="M81 490q0 49 12.5 87t36.5 59.5t56 21.5q33 0 56.5 -21.5t36 -59.5t12.5 -87t-12.5 -87t-36 -59.5t-56.5 -21.5q-32 0 -56 21.5t-36.5 59.5t-12.5 87zM30 490q0 -62 20 -111t55 -77t81 -28t81 28t55 77t20 111q0 63 -20 111.5t-55 76.5t-81 28t-81 -28t-55 -76.5
t-20 -111.5z" />
    <glyph glyph-name="uni2074" unicode="&#x2074;" horiz-adv-x="386" 
d="M30 364h320v45h-86h-10h-182zM84 364l149 223v-195v-6v-106h51v420h-21l-233 -336h54z" />
    <glyph glyph-name="uni2075" unicode="&#x2075;" horiz-adv-x="356" 
d="M326 416q0 42 -16 74t-44.5 50t-64.5 18q-26 0 -52 -10.5t-47 -33.5l-30 -40q32 23 54.5 30.5t52.5 7.5q41 0 67.5 -26t26.5 -70q0 -43 -24.5 -69.5t-69.5 -26.5q-34 0 -63 21.5t-43 48.5l-43 -30q21 -36 56 -62t93 -26q41 0 74 16t53 48.5t20 79.5zM166 653h159v45h-198
l-55 -224l63 54z" />
    <glyph glyph-name="uni2076" unicode="&#x2076;" horiz-adv-x="346" 
d="M85 416q0 29 12.5 51.5t33.5 35t48 12.5t48.5 -12.5t33.5 -35t12 -51.5q0 -43 -26.5 -70.5t-67.5 -27.5q-40 0 -67 27.5t-27 70.5zM204 698l-141 -195q-12 -16 -19.5 -38.5t-7.5 -48.5q0 -43 19 -75.5t51.5 -50.5t72.5 -18q41 0 73 18t51 50.5t19 75.5q0 39 -17 69.5
t-45 48.5t-62 18q-20 0 -36 -4.5t-28 -19.5l3 -3l132 173h-65z" />
    <glyph glyph-name="uni2077" unicode="&#x2077;" horiz-adv-x="354" 
d="M30 652h218l-178 -372h53l201 420h-294v-48z" />
    <glyph glyph-name="uni2078" unicode="&#x2078;" horiz-adv-x="322" 
d="M45 599q0 -32 14.5 -56t41 -37t60.5 -13q35 0 61 13t40.5 37t14.5 56q0 30 -15.5 54t-41.5 38.5t-59 14.5t-59.5 -14.5t-41.5 -38.5t-15 -54zM94 593q0 30 19 49t48 19t48 -19t19 -49q0 -20 -9 -35t-24.5 -23.5t-33.5 -8.5t-33 8.5t-24.5 23.5t-9.5 35zM30 394
q0 -32 17 -59.5t47 -44t67 -16.5q38 0 67.5 16.5t46.5 44t17 59.5q0 29 -10.5 51.5t-29 37.5t-42 23t-49.5 8t-49.5 -8t-42 -23t-29 -37.5t-10.5 -51.5zM79 400q0 23 12 41.5t30.5 29t39.5 10.5t39.5 -10.5t30.5 -29t12 -41.5q0 -39 -25 -60t-57 -21q-31 0 -56.5 21
t-25.5 60z" />
    <glyph glyph-name="uni2079" unicode="&#x2079;" horiz-adv-x="346" 
d="M279 564q0 -29 -12 -51.5t-33.5 -35t-48.5 -12.5t-48 12.5t-33.5 35t-12.5 51.5q0 44 27 71t67 27q41 0 67.5 -27t26.5 -71zM160 282l141 195q12 17 19.5 39.5t7.5 47.5q0 43 -19 75.5t-51 50.5t-73 18q-40 0 -72.5 -18t-51.5 -50.5t-19 -75.5q0 -38 17 -69t45 -49
t62 -18q20 0 36 4.5t28 19.5l-3 3l-132 -173h65z" />
    <glyph glyph-name="uni2080" unicode="&#x2080;" horiz-adv-x="372" 
d="M81 210q0 49 12.5 87t36.5 59.5t56 21.5q33 0 56.5 -21.5t36 -59.5t12.5 -87t-12.5 -87t-36 -59.5t-56.5 -21.5q-32 0 -56 21.5t-36.5 59.5t-12.5 87zM30 210q0 -62 20 -111t55 -77t81 -28t81 28t55 77t20 111q0 63 -20 111.5t-55 76.5t-81 28t-81 -28t-55 -76.5
t-20 -111.5z" />
    <glyph glyph-name="uni2081" unicode="&#x2081;" horiz-adv-x="314" 
d="M90 338l93 28v-365h51v426l-144 -36v-53z" />
    <glyph glyph-name="uni2082" unicode="&#x2082;" horiz-adv-x="346" 
d="M25 2h296v48h-191l133 136q25 26 40.5 55t15.5 61q0 28 -13 57.5t-41 49.5t-74 20q-43 0 -75 -19t-49.5 -53t-17.5 -79h51q0 48 25.5 75.5t65.5 27.5q26 0 42.5 -11t25 -28t8.5 -36q0 -25 -11.5 -47.5t-32.5 -44.5z" />
    <glyph glyph-name="uni2083" unicode="&#x2083;" horiz-adv-x="312" 
d="M141 207q41 0 71.5 14.5t48 39t17.5 53.5q0 44 -31 78t-85 34q-52 0 -85.5 -30.5t-33.5 -79.5h49q0 28 20.5 46t49.5 18q32 0 48 -18.5t16 -48.5q0 -20 -10 -36.5t-29 -26.5t-46 -10v-33zM159 -6q56 0 93.5 32t37.5 85q0 42 -20.5 67.5t-54 37.5t-74.5 12v-33
q27 0 49 -8.5t35 -26t13 -43.5q0 -34 -21.5 -54.5t-57.5 -20.5t-59 19.5t-23 49.5h-52q0 -32 16.5 -59t47 -42.5t70.5 -15.5z" />
    <glyph glyph-name="uni2084" unicode="&#x2084;" horiz-adv-x="386" 
d="M30 84h320v45h-86h-10h-182zM84 84l149 223v-195v-6v-106h51v420h-21l-233 -336h54z" />
    <glyph glyph-name="uni2085" unicode="&#x2085;" horiz-adv-x="356" 
d="M326 136q0 42 -16 74t-44.5 50t-64.5 18q-26 0 -52 -10.5t-47 -33.5l-30 -40q32 23 54.5 30.5t52.5 7.5q41 0 67.5 -26t26.5 -70q0 -43 -24.5 -69.5t-69.5 -26.5q-34 0 -63 21.5t-43 48.5l-43 -30q21 -36 56 -62t93 -26q41 0 74 16t53 48.5t20 79.5zM166 373h159v45h-198
l-55 -224l63 54z" />
    <glyph glyph-name="uni2086" unicode="&#x2086;" horiz-adv-x="346" 
d="M84 136q0 29 12.5 51.5t33.5 35t48 12.5t48.5 -12.5t33.5 -35t12 -51.5q0 -43 -26.5 -70.5t-67.5 -27.5q-40 0 -67 27.5t-27 70.5zM203 418l-141 -195q-12 -16 -19.5 -38.5t-7.5 -48.5q0 -43 19 -75.5t51.5 -50.5t72.5 -18q41 0 73 18t51 50.5t19 75.5q0 39 -17 69.5
t-45 48.5t-62 18q-20 0 -36 -4.5t-28 -19.5l3 -3l132 173h-65z" />
    <glyph glyph-name="uni2087" unicode="&#x2087;" horiz-adv-x="354" 
d="M30 372h218l-178 -372h53l201 420h-294v-48z" />
    <glyph glyph-name="uni2088" unicode="&#x2088;" horiz-adv-x="322" 
d="M45 319q0 -32 14.5 -56t41 -37t60.5 -13q35 0 61 13t40.5 37t14.5 56q0 30 -15.5 54t-41.5 38.5t-59 14.5t-59.5 -14.5t-41.5 -38.5t-15 -54zM94 313q0 30 19 49t48 19t48 -19t19 -49q0 -20 -9 -35t-24.5 -23.5t-33.5 -8.5t-33 8.5t-24.5 23.5t-9.5 35zM30 114
q0 -32 17 -59.5t47 -44t67 -16.5q38 0 67.5 16.5t46.5 44t17 59.5q0 29 -10.5 51.5t-29 37.5t-42 23t-49.5 8t-49.5 -8t-42 -23t-29 -37.5t-10.5 -51.5zM79 120q0 23 12 41.5t30.5 29t39.5 10.5t39.5 -10.5t30.5 -29t12 -41.5q0 -39 -25 -60t-57 -21q-31 0 -56.5 21
t-25.5 60z" />
    <glyph glyph-name="uni2089" unicode="&#x2089;" horiz-adv-x="346" 
d="M262 284q0 -29 -12 -51.5t-33.5 -35t-48.5 -12.5t-48 12.5t-33.5 35t-12.5 51.5q0 44 27 71t67 27q41 0 67.5 -27t26.5 -71zM143 2l141 195q12 17 19.5 39.5t7.5 47.5q0 43 -19 75.5t-51 50.5t-73 18q-40 0 -72.5 -18t-51.5 -50.5t-19 -75.5q0 -39 17 -69.5t45 -48.5
t62 -18q20 0 36 4.5t28 19.5l-3 3l-132 -173h65z" />
    <glyph glyph-name="Euro" unicode="&#x20ac;" horiz-adv-x="580" 
d="M15 407h501v48h-501v-48zM15 287h475v48h-475v-48zM155 350q0 82 27 145t75.5 99t112.5 36q86 0 150 -62v101q-34 20 -71.5 30.5t-78.5 10.5q-65 0 -120 -26.5t-95.5 -75t-62.5 -114.5t-22 -144q0 -105 39 -186t106.5 -127.5t154.5 -46.5q41 0 78.5 11t71.5 30v101
q-64 -62 -150 -62q-64 0 -112.5 36t-75.5 99.5t-27 144.5z" />
    <glyph glyph-name="ruble" unicode="&#x20bd;" horiz-adv-x="638" 
d="M150 700v-700h85v700h-85zM192 620h153q53 0 91.5 -13.5t60 -41t21.5 -70.5t-21.5 -70.5t-60 -41t-91.5 -13.5h-153v-80h153q68 0 125.5 20t92.5 65.5t35 119.5q0 75 -35 120t-92.5 65t-125.5 20h-153v-80zM220 105h200v75h-200v-75zM30 290h200v75h-200v-75zM30 105h200
v75h-200v-75z" />
    <glyph glyph-name="trademark" unicode="&#x2122;" horiz-adv-x="665" 
d="M32 660h90v-310h43v310h90v40h-223v-40zM562 602l28 -252h42l-42 367zM310 717l-42 -367h42l28 252zM590 717l-140 -253l-140 253v-85l140 -250l140 250v85z" />
    <glyph glyph-name="uni2150" unicode="&#x2150;" horiz-adv-x="842" 
d="M568 700l-520 -700h65l520 700h-65zM30 611l93 28v-365h51v426l-144 -36v-53zM518 372h218l-178 -372h53l201 420h-294v-48z" />
    <glyph glyph-name="uni2151" unicode="&#x2151;" horiz-adv-x="784" 
d="M568 700l-520 -700h65l520 700h-65zM30 611l93 28v-365h51v426l-144 -36v-53zM717 284q0 -29 -12 -51.5t-33.5 -35t-48.5 -12.5t-48 12.5t-33.5 35t-12.5 51.5q0 44 27 71t67 27q41 0 67.5 -27t26.5 -71zM598 2l141 195q12 17 19.5 39.5t7.5 47.5q0 43 -19 75.5t-51 50.5
t-73 18q-40 0 -72.5 -18t-51.5 -50.5t-19 -75.5q0 -39 17 -69.5t45 -48.5t62 -18q20 0 36 4.5t28 19.5l-3 3l-132 -173h65z" />
    <glyph glyph-name="uni2152" unicode="&#x2152;" horiz-adv-x="1080" 
d="M568 700l-520 -700h65l520 700h-65zM30 611l93 28v-365h51v426l-144 -36v-53zM488 338l93 28v-365h51v426l-144 -36v-53zM789 210q0 49 12.5 87t36.5 59.5t56 21.5q33 0 56.5 -21.5t36 -59.5t12.5 -87t-12.5 -87t-36 -59.5t-56.5 -21.5q-32 0 -56 21.5t-36.5 59.5
t-12.5 87zM738 210q0 -62 20 -111t55 -77t81 -28t81 28t55 77t20 111q0 63 -20 111.5t-55 76.5t-81 28t-81 -28t-55 -76.5t-20 -111.5z" />
    <glyph glyph-name="onethird" unicode="&#x2153;" horiz-adv-x="755" 
d="M568 700l-520 -700h65l520 700h-65zM30 611l93 28v-365h51v426l-144 -36v-53zM579 207q41 0 71.5 14.5t48 39t17.5 53.5q0 44 -31 78t-85 34q-52 0 -85.5 -30.5t-33.5 -79.5h49q0 28 20.5 46t49.5 18q32 0 48 -18.5t16 -48.5q0 -20 -10 -36.5t-29 -26.5t-46 -10v-33z
M597 -6q56 0 93.5 32t37.5 85q0 42 -20.5 67.5t-54 37.5t-74.5 12v-33q27 0 49 -8.5t35 -26t13 -43.5q0 -34 -21.5 -54.5t-57.5 -20.5t-59 19.5t-23 49.5h-52q0 -32 16.5 -59t47 -42.5t70.5 -15.5z" />
    <glyph glyph-name="twothirds" unicode="&#x2154;" horiz-adv-x="882" 
d="M695 700l-520 -700h65l520 700h-65zM30 282h296v48h-191l133 136q25 26 40.5 55t15.5 61q0 28 -13 57.5t-41 49.5t-74 20q-43 0 -75 -19t-49.5 -53t-17.5 -79h51q0 48 25.5 75.5t65.5 27.5q26 0 42.5 -11t25 -28t8.5 -36q0 -25 -11.5 -47.5t-32.5 -44.5zM706 207
q41 0 71.5 14.5t48 39t17.5 53.5q0 44 -31 78t-85 34q-52 0 -85.5 -30.5t-33.5 -79.5h49q0 28 20.5 46t49.5 18q32 0 48 -18.5t16 -48.5q0 -20 -10 -36.5t-29 -26.5t-46 -10v-33zM724 -6q56 0 93.5 32t37.5 85q0 42 -20.5 67.5t-54 37.5t-74.5 12v-33q27 0 49 -8.5t35 -26
t13 -43.5q0 -34 -21.5 -54.5t-57.5 -20.5t-59 19.5t-23 49.5h-52q0 -32 16.5 -59t47 -42.5t70.5 -15.5z" />
    <glyph glyph-name="uni2155" unicode="&#x2155;" horiz-adv-x="744" 
d="M568 700l-520 -700h65l520 700h-65zM30 611l93 28v-365h51v426l-144 -36v-53zM714 136q0 42 -16 74t-44.5 50t-64.5 18q-26 0 -52 -10.5t-47 -33.5l-30 -40q32 23 54.5 30.5t52.5 7.5q41 0 67.5 -26t26.5 -70q0 -43 -24.5 -69.5t-69.5 -26.5q-34 0 -63 21.5t-43 48.5
l-43 -30q21 -36 56 -62t93 -26q41 0 74 16t53 48.5t20 79.5zM554 373h159v45h-198l-55 -224l63 54z" />
    <glyph glyph-name="uni2156" unicode="&#x2156;" horiz-adv-x="871" 
d="M695 700l-520 -700h65l520 700h-65zM30 282h296v48h-191l133 136q25 26 40.5 55t15.5 61q0 28 -13 57.5t-41 49.5t-74 20q-43 0 -75 -19t-49.5 -53t-17.5 -79h51q0 48 25.5 75.5t65.5 27.5q26 0 42.5 -11t25 -28t8.5 -36q0 -25 -11.5 -47.5t-32.5 -44.5zM841 136
q0 42 -16 74t-44.5 50t-64.5 18q-26 0 -52 -10.5t-47 -33.5l-30 -40q32 23 54.5 30.5t52.5 7.5q41 0 67.5 -26t26.5 -70q0 -43 -24.5 -69.5t-69.5 -26.5q-34 0 -63 21.5t-43 48.5l-43 -30q21 -36 56 -62t93 -26q41 0 74 16t53 48.5t20 79.5zM681 373h159v45h-198l-55 -224
l63 54z" />
    <glyph glyph-name="uni2157" unicode="&#x2157;" horiz-adv-x="831" 
d="M655 700l-520 -700h65l520 700h-65zM146 487q41 0 71.5 14.5t48 39t17.5 53.5q0 44 -31 78t-85 34q-52 0 -85.5 -30.5t-33.5 -79.5h49q0 28 20.5 46t49.5 18q32 0 48 -18.5t16 -48.5q0 -20 -10 -36.5t-29 -26.5t-46 -10v-33zM164 274q56 0 93.5 32t37.5 85
q0 42 -20.5 67.5t-54 37.5t-74.5 12v-33q27 0 49 -8.5t35 -26t13 -43.5q0 -34 -21.5 -54.5t-57.5 -20.5t-59 19.5t-23 49.5h-52q0 -32 16.5 -59t47 -42.5t70.5 -15.5zM801 136q0 42 -16 74t-44.5 50t-64.5 18q-26 0 -52 -10.5t-47 -33.5l-30 -40q32 23 54.5 30.5t52.5 7.5
q41 0 67.5 -26t26.5 -70q0 -43 -24.5 -69.5t-69.5 -26.5q-34 0 -63 21.5t-43 48.5l-43 -30q21 -36 56 -62t93 -26q41 0 74 16t53 48.5t20 79.5zM641 373h159v45h-198l-55 -224l63 54z" />
    <glyph glyph-name="uni2158" unicode="&#x2158;" horiz-adv-x="866" 
d="M690 700l-520 -700h65l520 700h-65zM30 364h320v45h-86h-10h-182zM84 364l149 223v-195v-6v-106h51v420h-21l-233 -336h54zM836 136q0 42 -16 74t-44.5 50t-64.5 18q-26 0 -52 -10.5t-47 -33.5l-30 -40q32 23 54.5 30.5t52.5 7.5q41 0 67.5 -26t26.5 -70
q0 -43 -24.5 -69.5t-69.5 -26.5q-34 0 -63 21.5t-43 48.5l-43 -30q21 -36 56 -62t93 -26q41 0 74 16t53 48.5t20 79.5zM676 373h159v45h-198l-55 -224l63 54z" />
    <glyph glyph-name="uni2159" unicode="&#x2159;" horiz-adv-x="734" 
d="M568 700l-520 -700h65l520 700h-65zM30 611l93 28v-365h51v426l-144 -36v-53zM473 136q0 29 12 51.5t33.5 35t48.5 12.5t48.5 -12.5t33.5 -35t12 -51.5q0 -43 -26.5 -70.5t-67.5 -27.5q-40 0 -67 27.5t-27 70.5zM592 418l-141 -195q-12 -16 -19.5 -38.5t-7.5 -48.5
q0 -43 19 -75.5t51.5 -50.5t72.5 -18q41 0 73 18t51 50.5t19 75.5q0 39 -17 69.5t-45 48.5t-62 18q-20 0 -36 -4.5t-28 -19.5l3 -3l132 173h-65z" />
    <glyph glyph-name="uni215A" unicode="&#x215a;" horiz-adv-x="856" 
d="M690 700l-520 -700h65l520 700h-65zM326 416q0 42 -16 74t-44.5 50t-64.5 18q-26 0 -52 -10.5t-47 -33.5l-30 -40q32 23 54.5 30.5t52.5 7.5q41 0 67.5 -26t26.5 -70q0 -43 -24.5 -69.5t-69.5 -26.5q-34 0 -63 21.5t-43 48.5l-43 -30q21 -36 56 -62t93 -26q41 0 74 16
t53 48.5t20 79.5zM166 653h159v45h-198l-55 -224l63 54zM595 136q0 29 12.5 51.5t33.5 35t48 12.5t48.5 -12.5t33.5 -35t12 -51.5q0 -43 -26.5 -70.5t-67.5 -27.5q-40 0 -67 27.5t-27 70.5zM714 418l-141 -195q-12 -16 -19.5 -38.5t-7.5 -48.5q0 -43 19 -75.5t51.5 -50.5
t72.5 -18q41 0 73 18t51 50.5t19 75.5q0 39 -17 69.5t-45 48.5t-62 18q-20 0 -36 -4.5t-28 -19.5l3 -3l132 173h-65z" />
    <glyph glyph-name="oneeighth" unicode="&#x215b;" horiz-adv-x="760" 
d="M568 700l-520 -700h65l520 700h-65zM30 611l93 28v-365h51v426l-144 -36v-53zM483 319q0 -32 14.5 -56t41 -37t60.5 -13q35 0 61 13t40.5 37t14.5 56q0 30 -15 54t-41.5 38.5t-59.5 14.5t-59 -14.5t-41.5 -38.5t-15.5 -54zM532 313q0 30 19 49t48 19t48 -19t19 -49
q0 -20 -9 -35t-24.5 -23.5t-33.5 -8.5t-33 8.5t-24.5 23.5t-9.5 35zM468 114q0 -32 17 -59.5t47 -44t67 -16.5q38 0 67.5 16.5t46.5 44t17 59.5q0 29 -10.5 51.5t-29 37.5t-42 23t-49.5 8t-49.5 -8t-42 -23t-29 -37.5t-10.5 -51.5zM517 120q0 23 12 41.5t30.5 29t39.5 10.5
t39.5 -10.5t30.5 -29t12 -41.5q0 -39 -25 -60t-57 -21q-31 0 -56.5 21t-25.5 60z" />
    <glyph glyph-name="threeeighths" unicode="&#x215c;" horiz-adv-x="847" 
d="M655 700l-520 -700h65l520 700h-65zM146 487q41 0 71.5 14.5t48 39t17.5 53.5q0 44 -31 78t-85 34q-52 0 -85.5 -30.5t-33.5 -79.5h49q0 28 20.5 46t49.5 18q32 0 48 -18.5t16 -48.5q0 -20 -10 -36.5t-29 -26.5t-46 -10v-33zM164 274q56 0 93.5 32t37.5 85
q0 42 -20.5 67.5t-54 37.5t-74.5 12v-33q27 0 49 -8.5t35 -26t13 -43.5q0 -34 -21.5 -54.5t-57.5 -20.5t-59 19.5t-23 49.5h-52q0 -32 16.5 -59t47 -42.5t70.5 -15.5zM570 319q0 -32 14.5 -56t41 -37t60.5 -13q35 0 61 13t40.5 37t14.5 56q0 30 -15 54t-41.5 38.5
t-59.5 14.5t-59 -14.5t-41.5 -38.5t-15.5 -54zM619 313q0 30 19 49t48 19t48 -19t19 -49q0 -20 -9 -35t-24.5 -23.5t-33.5 -8.5t-33 8.5t-24.5 23.5t-9.5 35zM555 114q0 -32 17 -59.5t47 -44t67 -16.5q38 0 67.5 16.5t46.5 44t17 59.5q0 29 -10.5 51.5t-29 37.5t-42 23
t-49.5 8t-49.5 -8t-42 -23t-29 -37.5t-10.5 -51.5zM604 120q0 23 12 41.5t30.5 29t39.5 10.5t39.5 -10.5t30.5 -29t12 -41.5q0 -39 -25 -60t-57 -21q-31 0 -56.5 21t-25.5 60z" />
    <glyph glyph-name="fiveeighths" unicode="&#x215d;" horiz-adv-x="882" 
d="M690 700l-520 -700h65l520 700h-65zM326 416q0 42 -16 74t-44.5 50t-64.5 18q-26 0 -52 -10.5t-47 -33.5l-30 -40q32 23 54.5 30.5t52.5 7.5q41 0 67.5 -26t26.5 -70q0 -43 -24.5 -69.5t-69.5 -26.5q-34 0 -63 21.5t-43 48.5l-43 -30q21 -36 56 -62t93 -26q41 0 74 16
t53 48.5t20 79.5zM166 653h159v45h-198l-55 -224l63 54zM605 319q0 -32 14.5 -56t41 -37t60.5 -13q35 0 61 13t40.5 37t14.5 56q0 30 -15 54t-41.5 38.5t-59.5 14.5t-59 -14.5t-41.5 -38.5t-15.5 -54zM654 313q0 30 19 49t48 19t48 -19t19 -49q0 -20 -9 -35t-24.5 -23.5
t-33.5 -8.5t-33 8.5t-24.5 23.5t-9.5 35zM590 114q0 -32 17 -59.5t47 -44t67 -16.5q38 0 67.5 16.5t46.5 44t17 59.5q0 29 -10.5 51.5t-29 37.5t-42 23t-49.5 8t-49.5 -8t-42 -23t-29 -37.5t-10.5 -51.5zM639 120q0 23 12 41.5t30.5 29t39.5 10.5t39.5 -10.5t30.5 -29
t12 -41.5q0 -39 -25 -60t-57 -21q-31 0 -56.5 21t-25.5 60z" />
    <glyph glyph-name="seveneighths" unicode="&#x215e;" horiz-adv-x="772" 
d="M580 700l-520 -700h65l520 700h-65zM30 652h218l-178 -372h53l201 420h-294v-48zM495 319q0 -32 14.5 -56t41 -37t60.5 -13q35 0 61 13t40.5 37t14.5 56q0 30 -15 54t-41.5 38.5t-59.5 14.5t-59 -14.5t-41.5 -38.5t-15.5 -54zM544 313q0 30 19 49t48 19t48 -19t19 -49
q0 -20 -9 -35t-24.5 -23.5t-33.5 -8.5t-33 8.5t-24.5 23.5t-9.5 35zM480 114q0 -32 17 -59.5t47 -44t67 -16.5q38 0 67.5 16.5t46.5 44t17 59.5q0 29 -10.5 51.5t-29 37.5t-42 23t-49.5 8t-49.5 -8t-42 -23t-29 -37.5t-10.5 -51.5zM529 120q0 23 12 41.5t30.5 29t39.5 10.5
t39.5 -10.5t30.5 -29t12 -41.5q0 -39 -25 -60t-57 -21q-31 0 -56.5 21t-25.5 60z" />
    <glyph glyph-name="partialdiff" unicode="&#x2202;" horiz-adv-x="546" 
d="M273 -10q70 0 123.5 31t84 85t30.5 124q0 40 -11 82.5t-34.5 88t-59.5 96t-86 107.5t-114 121l-48 -56q43 -39 78 -75t63 -70.5t50.5 -68.5t38.5 -69h46q-101 71 -192 71q-60 0 -106.5 -29.5t-73.5 -80.5t-27 -117q0 -70 30.5 -124t84.5 -85t123 -31zM273 67
q-46 0 -81.5 21t-55.5 58t-20 84q0 48 20.5 85t56 58.5t80.5 21.5t80.5 -21.5t56 -58.5t20.5 -85q0 -47 -20 -84t-55.5 -58t-81.5 -21z" />
    <glyph glyph-name="emptyset" unicode="&#x2205;" horiz-adv-x="600" 
d="M300 28q59 0 107.5 29t77.5 77.5t29 107.5t-29 107.5t-77.5 77.5t-107.5 29t-107.5 -29t-77.5 -77.5t-29 -107.5t29 -107.5t77.5 -77.5t107.5 -29zM300 90q-42 0 -76.5 20.5t-55 55t-20.5 76.5t20.5 76.5t55 55t76.5 20.5t76.5 -20.5t55 -55t20.5 -76.5
q0 -40 -20.5 -74.5t-54.5 -56t-77 -21.5zM124 30l390 388l-38 36l-389 -388z" />
    <glyph glyph-name="product" unicode="&#x220f;" horiz-adv-x="600" 
d="M160 0h80v630h120v-630h80v630h85v70h-450v-70h85v-630z" />
    <glyph glyph-name="summation" unicode="&#x2211;" horiz-adv-x="600" 
d="M100 0h400v72h-284l134 280l-134 276h284v72h-400l170 -348z" />
    <glyph glyph-name="minus" unicode="&#x2212;" horiz-adv-x="590" 
d="M70 200h450v75h-450v-75z" />
    <glyph glyph-name="uni2215" unicode="&#x2215;" horiz-adv-x="515" 
d="M420 700l-405 -850h80l405 850h-80z" />
    <glyph glyph-name="uni2219" unicode="&#x2219;" horiz-adv-x="300" 
d="M95 415q0 -22 16.5 -38.5t38.5 -16.5q23 0 39 16.5t16 38.5q0 23 -16 39t-39 16q-22 0 -38.5 -16t-16.5 -39z" />
    <glyph glyph-name="radical" unicode="&#x221a;" horiz-adv-x="600" 
d="M243 -200l-135 404l80 -28l-129 -32l-14 57l133 33l77 -286l-43 20l132 732h158v-72h-162l79 54z" />
    <glyph glyph-name="infinity" unicode="&#x221e;" horiz-adv-x="750" 
d="M191 48q91 0 185 120q47 -60 92.5 -90t91.5 -30q45 0 83.5 25.5t61.5 67t23 89.5q0 49 -23 89.5t-61.5 65.5t-83.5 25q-91 0 -184 -120q-93 120 -185 120q-45 0 -83.5 -25t-62 -65.5t-23.5 -89.5q0 -48 23.5 -89.5t62 -67t83.5 -25.5zM202 126q-25 0 -47 15t-35.5 38.5
t-13.5 50.5q0 28 13.5 51t35.5 37.5t47 14.5q33 0 67 -26.5t64 -76.5q-31 -50 -64.5 -77t-66.5 -27zM549 126q-33 0 -67 27.5t-64 76.5q30 50 64 76.5t67 26.5q25 0 46.5 -14.5t35 -37.5t13.5 -51q0 -27 -13.5 -50.5t-35 -38.5t-46.5 -15z" />
    <glyph glyph-name="integral" unicode="&#x222b;" horiz-adv-x="600" 
d="M204 -200q37 -1 65.5 18.5t45.5 56t20 87.5l37 658q3 44 16.5 67.5t35.5 23.5q9 0 18.5 -5.5t25.5 -20.5l43 62q-25 23 -45.5 32t-43.5 10q-56 2 -91 -42t-40 -121l-37 -658q-3 -43 -16 -66.5t-36 -23.5q-9 0 -18.5 5.5t-25.5 20.5l-43 -62q26 -22 46.5 -31.5t42.5 -10.5
z" />
    <glyph glyph-name="approxequal" unicode="&#x2248;" horiz-adv-x="600" 
d="M394 372q-25 0 -54 12t-61 36q-24 18 -43.5 25.5t-42.5 7.5q-33 0 -47 -22t-4 -55l-74 5q-10 35 5.5 68.5t48 55.5t72.5 22q29 0 61 -12.5t62 -35.5q21 -16 39.5 -24t33.5 -8q27 0 38 23t-1 53l79 -5q9 -37 -4.5 -70.5t-42 -54.5t-65.5 -21zM394 122q-25 0 -54 12t-61 36
q-24 18 -43.5 25.5t-42.5 7.5q-33 0 -47 -22t-4 -55l-74 5q-10 35 5.5 68.5t48 55.5t72.5 22q29 0 61 -12.5t62 -35.5q21 -16 39.5 -24t33.5 -8q27 0 38 23t-1 53l79 -5q9 -37 -4.5 -70.5t-42 -54.5t-65.5 -21z" />
    <glyph glyph-name="notequal" unicode="&#x2260;" horiz-adv-x="600" 
d="M219 34l-65 38l242 420l65 -38zM65 140v75h485v-75h-485zM65 290v75h485v-75h-485z" />
    <glyph glyph-name="lessequal" unicode="&#x2264;" horiz-adv-x="600" 
d="M40 0v80h510v-80h-510zM550 115l-510 220v45l510 220v-80l-378 -158l378 -167v-80z" />
    <glyph glyph-name="greaterequal" unicode="&#x2265;" horiz-adv-x="600" 
d="M65 0v80h510v-80h-510zM65 115v80l378 158l-378 167v80l510 -220v-45z" />
    <glyph glyph-name="lozenge" unicode="&#x25ca;" horiz-adv-x="600" 
d="M306 15l-206 341l206 340l194 -340zM303 172l106 184l-106 184l-112 -184z" />
    <glyph glyph-name="uniFF10" unicode="&#xff10;" horiz-adv-x="580" 
d="M115 350q0 61 12 112.5t35 89t55.5 58t72.5 20.5q41 0 73 -20.5t55 -58t35 -89t12 -112.5t-12 -112.5t-35 -89t-55 -58t-73 -20.5q-40 0 -72.5 20.5t-55.5 58t-35 89t-12 112.5zM30 350q0 -105 33 -186t91.5 -127.5t135.5 -46.5t135.5 46.5t91.5 127.5t33 186t-33 186
t-91.5 127.5t-135.5 46.5t-135.5 -46.5t-91.5 -127.5t-33 -186z" />
    <glyph glyph-name="uniFF11" unicode="&#xff11;" horiz-adv-x="580" 
d="M115 562l155 46v-608h85v710l-240 -60v-88z" />
    <glyph glyph-name="uniFF12" unicode="&#xff12;" horiz-adv-x="580" 
d="M26 0h494v80h-320l224 227q41 42 66.5 90t25.5 102q0 35 -12 72.5t-37.5 69t-66 51t-98.5 19.5q-72 0 -125 -31.5t-82 -88t-29 -131.5h84q0 53 19.5 91.5t53.5 59t79 20.5q32 0 56 -11t40 -29t24 -40t8 -45q0 -28 -9 -53.5t-25.5 -50t-39.5 -49.5z" />
    <glyph glyph-name="uniFF13" unicode="&#xff13;" horiz-adv-x="580" 
d="M270 345q68 0 119 24t80 65t29 90q0 50 -23.5 92t-67 68t-103.5 26q-57 0 -101.5 -23.5t-70 -64.5t-25.5 -96h81q0 46 34 76.5t83 30.5q35 0 58.5 -14t35.5 -39.5t12 -58.5q0 -25 -9.5 -47t-27.5 -38.5t-44 -26t-60 -9.5v-55zM300 -10q63 0 112 24t77.5 68t28.5 103
q0 52 -19.5 89t-54 60.5t-79 34.5t-95.5 11v-55q34 0 63 -8t51 -24.5t34.5 -41t12.5 -56.5q0 -38 -16 -66t-45.5 -43.5t-69.5 -15.5t-71 15t-48.5 41t-17.5 59h-86q0 -41 16 -76.5t45 -62t70 -41.5t92 -15z" />
    <glyph glyph-name="uniFF14" unicode="&#xff14;" horiz-adv-x="580" 
d="M18 140h533v75h-143h-17h-303zM108 140l248 371v-324v-11v-176h85v700h-35l-388 -560h90z" />
    <glyph glyph-name="uniFF15" unicode="&#xff15;" horiz-adv-x="580" 
d="M532 230q0 70 -27 123t-74.5 83t-107.5 30q-44 0 -87 -17.5t-78 -55.5l-50 -66q36 25 63.5 38.5t55 19t60.5 5.5q45 0 80.5 -20t56 -56t20.5 -84t-18.5 -84t-53.5 -56t-85 -20q-39 0 -73.5 16.5t-61 43t-42.5 56.5l-72 -49q23 -40 56.5 -73.5t81 -53.5t111.5 -20
q51 0 95 15t78 45t53 75t19 105zM266 625h264v75h-330l-92 -373l105 90z" />
    <glyph glyph-name="uniFF16" unicode="&#xff16;" horiz-adv-x="580" 
d="M133 230q0 48 20.5 85.5t56 58.5t80.5 21t80.5 -21t56 -58.5t20.5 -85.5t-20.5 -84.5t-56 -57.5t-80.5 -21t-80.5 21t-56 57.5t-20.5 84.5zM332 700l-236 -325q-20 -28 -32 -65t-12 -80q0 -72 31.5 -126t85.5 -84t121 -30q68 0 121.5 30t85 84t31.5 126q0 48 -16 89.5
t-44.5 72.5t-66 48t-80.5 17q-34 0 -60.5 -8t-46.5 -33l6 -5l219 289h-107z" />
    <glyph glyph-name="uniFF17" unicode="&#xff17;" horiz-adv-x="580" 
d="M58 620h362l-296 -620h88l336 700h-490v-80z" />
    <glyph glyph-name="uniFF18" unicode="&#xff18;" horiz-adv-x="580" 
d="M97 531q0 -41 14 -73.5t39.5 -55.5t61 -35t78.5 -12t78.5 12t61 35t39.5 55.5t14 73.5q0 50 -25.5 90.5t-69 64.5t-98.5 24t-98.5 -24t-69 -64.5t-25.5 -90.5zM178 521q0 33 14.5 59t40 40.5t57.5 14.5q33 0 58 -14.5t39.5 -40.5t14.5 -59t-15.5 -58t-41 -39t-55.5 -14
t-55.5 14t-41 39t-15.5 58zM72 190q0 -41 16.5 -77t46 -64t69 -43.5t86.5 -15.5t86.5 15.5t69 43.5t46 64t16.5 77q0 48 -17.5 85.5t-48 63t-70 38.5t-82.5 13t-82.5 -13t-70 -38.5t-48 -63t-17.5 -85.5zM153 200q0 38 19.5 68.5t51 48.5t66.5 18t66.5 -18t51 -48.5
t19.5 -68.5q0 -43 -19.5 -73t-51 -46t-66.5 -16t-66.5 16t-51 46t-19.5 73z" />
    <glyph glyph-name="uniFF19" unicode="&#xff19;" horiz-adv-x="580" 
d="M447 470q0 -48 -20.5 -85t-56 -58.5t-80.5 -21.5t-80.5 21.5t-56 58.5t-20.5 85t20.5 84.5t56 57.5t80.5 21t80.5 -21t56 -57.5t20.5 -84.5zM248 0l236 325q20 28 32 65t12 80q0 72 -31.5 126t-85 84t-121.5 30q-67 0 -121 -30t-85.5 -84t-31.5 -126q0 -48 16 -89.5
t44.5 -72.5t66 -48t80.5 -17q34 0 60.5 8t46.5 33l-6 5l-219 -289h107z" />
    <glyph glyph-name="a.alt" 
d="M425 460v-460h75v460h-75zM35 230q0 -74 31 -128t83 -83t114 -29q58 0 101 29t67.5 83t24.5 128q0 75 -24.5 128.5t-67.5 82.5t-101 29q-62 0 -114 -29t-83 -82.5t-31 -128.5zM116 230q0 53 21.5 90t57.5 56t78 19q35 0 69 -19t56 -56t22 -90t-22 -90t-56 -56t-69 -19
q-42 0 -78 19t-57.5 56t-21.5 90z" />
    <glyph glyph-name="agrave.alt" 
d="M425 460v-460h75v460h-75zM35 230q0 -74 31 -128t83 -83t114 -29q58 0 101 29t67.5 83t24.5 128q0 75 -24.5 128.5t-67.5 82.5t-101 29q-62 0 -114 -29t-83 -82.5t-31 -128.5zM116 230q0 53 21.5 90t57.5 56t78 19q35 0 69 -19t56 -56t22 -90t-22 -90t-56 -56t-69 -19
q-42 0 -78 19t-57.5 56t-21.5 90zM113 680l180 -150l45 30l-150 160z" />
    <glyph glyph-name="aacute.alt" 
d="M425 460v-460h75v460h-75zM35 230q0 -74 31 -128t83 -83t114 -29q58 0 101 29t67.5 83t24.5 128q0 75 -24.5 128.5t-67.5 82.5t-101 29q-62 0 -114 -29t-83 -82.5t-31 -128.5zM116 230q0 53 21.5 90t57.5 56t78 19q35 0 69 -19t56 -56t22 -90t-22 -90t-56 -56t-69 -19
q-42 0 -78 19t-57.5 56t-21.5 90zM393 680l-75 40l-150 -160l45 -30z" />
    <glyph glyph-name="acircumflex.alt" 
d="M425 460v-460h75v460h-75zM35 230q0 -74 31 -128t83 -83t114 -29q58 0 101 29t67.5 83t24.5 128q0 75 -24.5 128.5t-67.5 82.5t-101 29q-62 0 -114 -29t-83 -82.5t-31 -128.5zM116 230q0 53 21.5 90t57.5 56t78 19q35 0 69 -19t56 -56t22 -90t-22 -90t-56 -56t-69 -19
q-42 0 -78 19t-57.5 56t-21.5 90zM283 625l110 -95l50 40l-160 140l-160 -140l50 -40z" />
    <glyph glyph-name="atilde.alt" 
d="M425 460v-460h75v460h-75zM35 230q0 -74 31 -128t83 -83t114 -29q58 0 101 29t67.5 83t24.5 128q0 75 -24.5 128.5t-67.5 82.5t-101 29q-62 0 -114 -29t-83 -82.5t-31 -128.5zM116 230q0 53 21.5 90t57.5 56t78 19q35 0 69 -19t56 -56t22 -90t-22 -90t-56 -56t-69 -19
q-42 0 -78 19t-57.5 56t-21.5 90zM118 567l53 -37q0 8 4 20t15 21.5t31 9.5q23 0 39.5 -11.5t35.5 -23.5t46 -12q25 0 46 10.5t36.5 27.5t23.5 35l-46 43q-15 -24 -28.5 -36t-27.5 -12q-20 0 -33 7t-24.5 16.5t-27 16.5t-39.5 7q-22 0 -44.5 -10.5t-38.5 -28.5t-21 -43z" />
    <glyph glyph-name="adieresis.alt" 
d="M425 460v-460h75v460h-75zM35 230q0 -74 31 -128t83 -83t114 -29q58 0 101 29t67.5 83t24.5 128q0 75 -24.5 128.5t-67.5 82.5t-101 29q-62 0 -114 -29t-83 -82.5t-31 -128.5zM116 230q0 53 21.5 90t57.5 56t78 19q35 0 69 -19t56 -56t22 -90t-22 -90t-56 -56t-69 -19
q-42 0 -78 19t-57.5 56t-21.5 90zM328 585q0 -22 16.5 -38.5t38.5 -16.5q23 0 39 16.5t16 38.5q0 23 -16 39t-39 16q-22 0 -38.5 -16t-16.5 -39zM128 585q0 -22 16.5 -38.5t38.5 -16.5q23 0 39 16.5t16 38.5q0 23 -16 39t-39 16q-22 0 -38.5 -16t-16.5 -39z" />
    <glyph glyph-name="aring.alt" 
d="M425 460v-460h75v460h-75zM35 230q0 -74 31 -128t83 -83t114 -29q58 0 101 29t67.5 83t24.5 128q0 75 -24.5 128.5t-67.5 82.5t-101 29q-62 0 -114 -29t-83 -82.5t-31 -128.5zM116 230q0 53 21.5 90t57.5 56t78 19q35 0 69 -19t56 -56t22 -90t-22 -90t-56 -56t-69 -19
q-42 0 -78 19t-57.5 56t-21.5 90zM181 630q0 -45 31.5 -72.5t70.5 -27.5t70.5 27.5t31.5 72.5t-31.5 72.5t-70.5 27.5t-70.5 -27.5t-31.5 -72.5zM232 630q0 25 16 39t35 14t35 -14t16 -39t-16 -39t-35 -14t-35 14t-16 39z" />
    <glyph glyph-name="amacron.alt" 
d="M425 460v-460h75v460h-75zM35 230q0 -74 31 -128t83 -83t114 -29q58 0 101 29t67.5 83t24.5 128q0 75 -24.5 128.5t-67.5 82.5t-101 29q-62 0 -114 -29t-83 -82.5t-31 -128.5zM116 230q0 53 21.5 90t57.5 56t78 19q35 0 69 -19t56 -56t22 -90t-22 -90t-56 -56t-69 -19
q-42 0 -78 19t-57.5 56t-21.5 90zM98 530h350v75h-350v-75z" />
    <glyph glyph-name="abreve.alt" 
d="M425 460v-460h75v460h-75zM35 230q0 -74 31 -128t83 -83t114 -29q58 0 101 29t67.5 83t24.5 128q0 75 -24.5 128.5t-67.5 82.5t-101 29q-62 0 -114 -29t-83 -82.5t-31 -128.5zM116 230q0 53 21.5 90t57.5 56t78 19q35 0 69 -19t56 -56t22 -90t-22 -90t-56 -56t-69 -19
q-42 0 -78 19t-57.5 56t-21.5 90zM105 670q0 -34 17.5 -66.5t53 -53t87.5 -20.5q53 0 88 20.5t52.5 53t17.5 66.5h-71q0 -13 -7 -30.5t-26 -31t-54 -13.5t-54 13.5t-26 31t-7 30.5h-71z" />
    <glyph glyph-name="aogonek.alt" 
d="M425 460v-460h75v460h-75zM35 230q0 -74 31 -128t83 -83t114 -29q58 0 101 29t67.5 83t24.5 128q0 75 -24.5 128.5t-67.5 82.5t-101 29q-62 0 -114 -29t-83 -82.5t-31 -128.5zM116 230q0 53 21.5 90t57.5 56t78 19q35 0 69 -19t56 -56t22 -90t-22 -90t-56 -56t-69 -19
q-42 0 -78 19t-57.5 56t-21.5 90zM505 -130q-10 -10 -20 -15t-30 -5q-22 0 -35 11.5t-13 38.5q0 19 12.5 37.5t33.5 35t47 27.5l-41 25q-35 -18 -65 -40.5t-48.5 -48.5t-18.5 -56q0 -29 13.5 -52t40.5 -35.5t69 -12.5q32 0 54.5 12.5t33.5 27.5z" />
    </font>
</defs>
</svg>
